<?xml version="1.0" standalone="no"?>
<!DOCTYPE svg PUBLIC "-//W3C//DTD SVG 1.1//EN" "http://www.w3.org/Graphics/SVG/1.1/DTD/svg11.dtd" >
<svg>
<metadata>
Created by FontForge 20110222 at Wed Feb 11 17:55:33 2015
 By www-data
</metadata>
<defs>
<font id="owf-regular" horiz-adv-x="1970" >
  <font-face 
    font-family="owf-regular"
    font-weight="400"
    font-stretch="normal"
    units-per-em="2048"
    panose-1="2 11 6 3 5 3 2 2 2 4"
    ascent="1638"
    descent="-410"
    bbox="171 169.335 1919 1926"
    underline-thickness="0"
    underline-position="0"
    unicode-range="U+0020-F1FF"
  />
<missing-glyph horiz-adv-x="2048" 
d="M652 895q-56 -19 -122 -19q-149 0 -254 93t-105 225q0 111 76 196t192 112q11 156 141.5 265.5t311.5 109.5q130 0 237 -59.5t164 -155.5q64 17 131 17q187 0 320 -118t133 -284q0 -167 -133 -284t-320 -117q-68 0 -119 14q-137 -87 -323 -87q-193 0 -330 92zM1235 530
q-71 -41 -125 3q-56 42 -33 121q16 51 113.5 80t98.5 29q2 -3 -2.5 -104t-51.5 -129zM796 754l-92 -109h258l-475 -474l137 341h-181l108 311q20 3 53 13q82 -55 192 -82z" />
    <glyph glyph-name=".notdef" horiz-adv-x="2048" 
d="M652 895q-56 -19 -122 -19q-149 0 -254 93t-105 225q0 111 76 196t192 112q11 156 141.5 265.5t311.5 109.5q130 0 237 -59.5t164 -155.5q64 17 131 17q187 0 320 -118t133 -284q0 -167 -133 -284t-320 -117q-68 0 -119 14q-137 -87 -323 -87q-193 0 -330 92zM1235 530
q-71 -41 -125 3q-56 42 -33 121q16 51 113.5 80t98.5 29q2 -3 -2.5 -104t-51.5 -129zM796 754l-92 -109h258l-475 -474l137 341h-181l108 311q20 3 53 13q82 -55 192 -82z" />
    <glyph glyph-name="glyph1" horiz-adv-x="0" 
 />
    <glyph glyph-name="glyph2" horiz-adv-x="2048" 
 />
    <glyph glyph-name="space" unicode=" " horiz-adv-x="2048" 
 />
    <glyph glyph-name="uniEB28" unicode="&#xeb28;" 
d="M652 895q-56 -19 -122 -19q-149 0 -254 93t-105 225q0 111 76 196t192 112q11 156 141.5 265.5t311.5 109.5q130 0 237 -59.5t164 -155.5q64 17 131 17q187 0 320 -118t133 -284q0 -167 -133 -284t-320 -117q-68 0 -119 14q-137 -87 -323 -87q-193 0 -330 92zM1235 530
q-71 -41 -125 3q-56 42 -33 121q16 51 113.5 80t98.5 29q2 -3 -2.5 -104t-51.5 -129zM796 754l-92 -109h258l-475 -474l137 341h-181l108 311q20 3 53 13q82 -55 192 -82z" />
    <glyph glyph-name="uniEB29" unicode="&#xeb29;" 
d="M652 895q-56 -19 -122 -19q-149 0 -254 93t-105 225q0 111 76 196t192 112q11 156 141.5 265.5t311.5 109.5q130 0 237 -59.5t164 -155.5q64 17 131 17q187 0 320 -118t133 -284q0 -167 -133 -284t-320 -117q-68 0 -119 14q-137 -87 -323 -87q-193 0 -330 92zM1230 539
q-63 -38 -114 3q-51 39 -30 111q15 46 104 72.5t90 26.5q1 -2 -3 -94.5t-47 -118.5zM1605 649q-70 -41 -125 2q-57 45 -32 122q15 51 112.5 79.5t98.5 28.5q2 -2 -2.5 -103.5t-51.5 -128.5zM796 754l-92 -109h258l-475 -474l137 341h-181l108 311q20 3 53 13q82 -55 192 -82
z" />
    <glyph glyph-name="uniEB2A" unicode="&#xeb2a;" 
d="M652 895q-56 -19 -122 -19q-149 0 -254 93t-105 225q0 111 76 196t192 112q11 156 141.5 265.5t311.5 109.5q130 0 237 -59.5t164 -155.5q64 17 131 17q187 0 320 -118t133 -284q0 -167 -133 -284t-320 -117q-68 0 -119 14q-137 -87 -323 -87q-193 0 -330 92zM1230 539
q-63 -38 -114 3q-51 39 -30 111q15 46 104 72.5t90 26.5q1 -2 -3 -94.5t-47 -118.5zM1605 649q-70 -41 -125 2q-57 45 -32 122q15 51 112.5 79.5t98.5 28.5q2 -2 -2.5 -103.5t-51.5 -128.5zM1365 296q-59 -35 -105 3q-48 36 -27 102q13 43 95 67.5t83 24.5q2 -2 -2 -87.5
t-44 -109.5zM796 754l-92 -109h258l-475 -474l137 341h-181l108 311q20 3 53 13q82 -55 192 -82z" />
    <glyph glyph-name="uniEB32" unicode="&#xeb32;" 
d="M652 895q-56 -19 -122 -19q-149 0 -254 93t-105 225q0 111 76 196t192 112q11 156 141.5 265.5t311.5 109.5q130 0 237 -59.5t164 -155.5q64 17 131 17q187 0 320 -118t133 -284q0 -167 -133 -284t-320 -117q-68 0 -119 14q-137 -87 -323 -87q-193 0 -330 92zM796 754
l-92 -109h258l-475 -474l137 341h-181l108 311q20 3 53 13q82 -55 192 -82z" />
    <glyph glyph-name="uniEB33" unicode="&#xeb33;" 
d="M652 895q-56 -19 -122 -19q-149 0 -254 93t-105 225q0 111 76 196t192 112q11 156 141.5 265.5t311.5 109.5q130 0 237 -59.5t164 -155.5q64 17 131 17q187 0 320 -118t133 -284q0 -167 -133 -284t-320 -117q-68 0 -119 14q-137 -87 -323 -87q-193 0 -330 92zM1374 824
l-61 -73h205l-379 -379l109 273h-145l37 105q118 26 201 81q11 -3 33 -7zM796 754l-92 -109h258l-475 -474l137 341h-181l108 311q20 3 53 13q82 -55 192 -82z" />
    <glyph glyph-name="uniEB34" unicode="&#xeb34;" 
d="M652 895q-56 -19 -122 -19q-149 0 -254 93t-105 225q0 111 76 196t192 112q11 156 141.5 265.5t311.5 109.5q130 0 237 -59.5t164 -155.5q64 17 131 17q187 0 320 -118t133 -284q0 -167 -133 -284t-320 -117q-68 0 -119 14q-137 -87 -323 -87q-193 0 -330 92zM1527 817
l-13 -14h202l-372 -373l107 268h-142l45 130q56 -13 122 -13q17 0 51 2zM605 835l-92 -108h202l-372 -372l107 268h-142l70 200q44 -8 87 -8q73 0 139 21v-0.5t1 -0.5zM1074 739l-79 -94h257l-474 -474l137 341h-182l83 237q81 -16 161 -16q49 0 97 6z" />
    <glyph glyph-name="uniEB3D" unicode="&#xeb3d;" 
d="M515 1173q-39 -13 -87 -13q-107 0 -182 66.5t-75 161.5q0 79 54.5 140t137.5 80q8 112 101.5 190.5t222.5 78.5q197 0 288 -154q43 12 93 12q134 0 229.5 -84.5t95.5 -202.5v-3v-2q-111 93 -263 93t-261.5 -92t-118.5 -224q-93 -22 -154 -86q-40 13 -81 39zM809 695
l-42 -50h257l-474 -474l136 341h-181l95 273q83 -84 209 -90zM964 753q-40 -14 -91 -14q-111 0 -189 69t-78 167q0 83 56.5 146t143.5 84q8 117 105 198.5t232 81.5q204 0 299 -160q46 12 97 12q140 0 239 -88t99 -211q0 -125 -99 -212t-239 -87q-48 0 -89 10
q-101 -65 -240 -65q-145 0 -246 69z" />
    <glyph glyph-name="uniEB46" unicode="&#xeb46;" 
d="M652 895q-56 -19 -122 -19q-149 0 -254 93t-105 225q0 111 76 196t192 112q11 156 141.5 265.5t311.5 109.5q130 0 237 -59.5t164 -155.5q64 17 131 17q187 0 320 -118t133 -284q0 -167 -133 -284t-320 -117q-68 0 -119 14q-137 -87 -323 -87q-193 0 -330 92zM812 373
l138 139h77l-137 -139h-78zM1089 575h-77l137 139h78zM796 754l-92 -109h258l-475 -474l137 341h-181l108 311q20 3 53 13q82 -55 192 -82z" />
    <glyph glyph-name="uniEB47" unicode="&#xeb47;" 
d="M652 895q-56 -19 -122 -19q-149 0 -254 93t-105 225q0 111 76 196t192 112q11 156 141.5 265.5t311.5 109.5q130 0 237 -59.5t164 -155.5q64 17 131 17q187 0 320 -118t133 -284q0 -167 -133 -284t-320 -117q-68 0 -119 14q-137 -87 -323 -87q-193 0 -330 92zM1068 373
l137 139h78l-138 -139h-77zM1345 575h-78l138 139h77zM812 373l138 139h77l-137 -139h-78zM1089 575h-77l137 139h78zM796 754l-92 -109h258l-475 -474l137 341h-181l108 311q20 3 53 13q82 -55 192 -82z" />
    <glyph glyph-name="uniEB48" unicode="&#xeb48;" 
d="M652 895q-56 -19 -122 -19q-149 0 -254 93t-105 225q0 111 76 196t192 112q11 156 141.5 265.5t311.5 109.5q130 0 237 -59.5t164 -155.5q64 17 131 17q187 0 320 -118t133 -284q0 -167 -133 -284t-320 -117q-68 0 -119 14q-137 -87 -323 -87q-193 0 -330 92zM1068 373
l137 139h78l-138 -139h-77zM1345 575h-78l138 139h77zM812 373l138 139h77l-137 -139h-78zM1089 575h-77l137 139h78zM1323 373l138 139h77l-137 -139h-78zM1600 575h-78l138 139h78zM796 754l-92 -109h258l-475 -474l137 341h-181l108 311q20 3 53 13q82 -55 192 -82z" />
    <glyph glyph-name="uniEB8C" unicode="&#xeb8c;" 
d="M652 895q-56 -19 -122 -19q-149 0 -254 93t-105 225q0 111 76 196t192 112q11 156 141.5 265.5t311.5 109.5q130 0 237 -59.5t164 -155.5q64 17 131 17q187 0 320 -118t133 -284q0 -167 -133 -284t-320 -117q-68 0 -119 14q-137 -87 -323 -87q-193 0 -330 92zM1234 373
h-78l-138 139h78zM957 575l-138 139h78l137 -139h-77z" />
    <glyph glyph-name="uniEB8D" unicode="&#xeb8d;" 
d="M652 895q-56 -19 -122 -19q-149 0 -254 93t-105 225q0 111 76 196t192 112q11 156 141.5 265.5t311.5 109.5q130 0 237 -59.5t164 -155.5q64 17 131 17q187 0 320 -118t133 -284q0 -167 -133 -284t-320 -117q-68 0 -119 14q-137 -87 -323 -87q-193 0 -330 92zM978 373
h-77l-138 139h77zM701 575l-137 139h77l138 -139h-78zM1234 373h-78l-138 139h78zM957 575l-138 139h78l137 -139h-77z" />
    <glyph glyph-name="uniEB8E" unicode="&#xeb8e;" 
d="M652 895q-56 -19 -122 -19q-149 0 -254 93t-105 225q0 111 76 196t192 112q11 156 141.5 265.5t311.5 109.5q130 0 237 -59.5t164 -155.5q64 17 131 17q187 0 320 -118t133 -284q0 -167 -133 -284t-320 -117q-68 0 -119 14q-137 -87 -323 -87q-193 0 -330 92zM978 373
h-77l-138 139h77zM701 575l-137 139h77l138 -139h-78zM1234 373h-78l-138 139h78zM957 575l-138 139h78l137 -139h-77zM723 373h-78l-138 139h78zM446 575l-138 139h78l137 -139h-77z" />
    <glyph glyph-name="uniEB96" unicode="&#xeb96;" 
d="M652 895q-56 -19 -122 -19q-149 0 -254 93t-105 225q0 111 76 196t192 112q11 156 141.5 265.5t311.5 109.5q130 0 237 -59.5t164 -155.5q64 17 131 17q187 0 320 -118t133 -284q0 -167 -133 -284t-320 -117q-68 0 -119 14q-137 -87 -323 -87q-193 0 -330 92zM1272 491
q-43 25 -47.5 117.5t-1.5 94.5l89 -26t104 -73q22 -72 -30 -111q-51 -40 -114 -2zM1234 373h-78l-138 139h78zM957 575l-138 139h78l137 -139h-77z" />
    <glyph glyph-name="uniEB97" unicode="&#xeb97;" 
d="M652 895q-56 -19 -122 -19q-149 0 -254 93t-105 225q0 111 76 196t192 112q11 156 141.5 265.5t311.5 109.5q130 0 237 -59.5t164 -155.5q64 17 131 17q187 0 320 -118t133 -284q0 -167 -133 -284t-320 -117q-68 0 -119 14q-137 -87 -323 -87q-193 0 -330 92zM978 373
h-77l-138 139h77zM701 575l-137 139h77l138 -139h-78zM1234 373h-78l-138 139h78zM957 575l-138 139h78l137 -139h-77zM1272 491q-43 25 -47.5 117.5t-1.5 94.5l89 -26t104 -73q22 -72 -30 -111q-51 -40 -114 -2z" />
    <glyph glyph-name="uniEB98" unicode="&#xeb98;" 
d="M652 895q-56 -19 -122 -19q-149 0 -254 93t-105 225q0 111 76 196t192 112q11 156 141.5 265.5t311.5 109.5q130 0 237 -59.5t164 -155.5q64 17 131 17q187 0 320 -118t133 -284q0 -167 -133 -284t-320 -117q-68 0 -119 14q-137 -87 -323 -87q-193 0 -330 92zM1584 591
q-48 28 -52.5 129.5t-1.5 103.5l97.5 -28.5t113.5 -79.5q23 -78 -33 -122q-57 -44 -124 -3zM1272 491q-43 25 -47.5 117.5t-1.5 94.5l89 -26t104 -73q22 -72 -30 -111q-51 -40 -114 -2zM978 373h-77l-138 139h77zM701 575l-137 139h77l138 -139h-78zM1234 373h-78l-138 139
h78zM957 575l-138 139h78l137 -139h-77z" />
    <glyph glyph-name="uniEB99" unicode="&#xeb99;" 
d="M652 895q-56 -19 -122 -19q-149 0 -254 93t-105 225q0 111 76 196t192 112q11 156 141.5 265.5t311.5 109.5q130 0 237 -59.5t164 -155.5q64 17 131 17q187 0 320 -118t133 -284q0 -167 -133 -284t-320 -117q-68 0 -119 14q-137 -87 -323 -87q-193 0 -330 92zM1272 491
q-43 25 -47.5 117.5t-1.5 94.5l89 -26t104 -73q22 -72 -30 -111q-51 -40 -114 -2zM978 373h-77l-138 139h77zM701 575l-137 139h77l138 -139h-78zM1234 373h-78l-138 139h78zM957 575l-138 139h78l137 -139h-77zM723 373h-78l-138 139h78zM446 575l-138 139h78l137 -139h-77
z" />
    <glyph glyph-name="uniEB9A" unicode="&#xeb9a;" 
d="M652 895q-56 -19 -122 -19q-149 0 -254 93t-105 225q0 111 76 196t192 112q11 156 141.5 265.5t311.5 109.5q130 0 237 -59.5t164 -155.5q64 17 131 17q187 0 320 -118t133 -284q0 -167 -133 -284t-320 -117q-68 0 -119 14q-137 -87 -323 -87q-193 0 -330 92zM1584 591
q-48 28 -52.5 129.5t-1.5 103.5l97.5 -28.5t113.5 -79.5q23 -78 -33 -122q-57 -44 -124 -3zM1272 491q-43 25 -47.5 117.5t-1.5 94.5l89 -26t104 -73q22 -72 -30 -111q-51 -40 -114 -2zM978 373h-77l-138 139h77zM701 575l-137 139h77l138 -139h-78zM1234 373h-78l-138 139
h78zM957 575l-138 139h78l137 -139h-77zM723 373h-78l-138 139h78zM446 575l-138 139h78l137 -139h-77z" />
    <glyph glyph-name="uniEBA1" unicode="&#xeba1;" 
d="M652 895q-56 -19 -122 -19q-149 0 -254 93t-105 225q0 111 76 196t192 112q11 156 141.5 265.5t311.5 109.5q130 0 237 -59.5t164 -155.5q64 17 131 17q187 0 320 -118t133 -284q0 -167 -133 -284t-320 -117q-68 0 -119 14q-137 -87 -323 -87q-193 0 -330 92zM1574 301
q-40 24 -44 109t-2 87l82.5 -24.5t96.5 -66.5q18 -68 -28 -103q-47 -37 -105 -2zM1584 591q-48 28 -52.5 129.5t-1.5 103.5l97.5 -28.5t113.5 -79.5q23 -78 -33 -122q-57 -44 -124 -3zM1272 491q-43 25 -47.5 117.5t-1.5 94.5l89 -26t104 -73q22 -72 -30 -111
q-51 -40 -114 -2zM978 373h-77l-138 139h77zM701 575l-137 139h77l138 -139h-78zM1234 373h-78l-138 139h78zM957 575l-138 139h78l137 -139h-77zM723 373h-78l-138 139h78zM446 575l-138 139h78l137 -139h-77z" />
    <glyph glyph-name="uniEC54" unicode="&#xec54;" 
d="M652 895q-56 -19 -122 -19q-149 0 -254 93t-105 225q0 111 76 196t192 112q11 156 141.5 265.5t311.5 109.5q130 0 237 -59.5t164 -155.5q64 17 131 17q187 0 320 -118t133 -284q0 -167 -133 -284t-320 -117q-68 0 -119 14q-137 -87 -323 -87q-193 0 -330 92zM548 574
q-21 53 40 139.5t64 86.5q0 -1 62 -87t42 -138q-30 -79 -104 -79t-104 78z" />
    <glyph glyph-name="uniEC55" unicode="&#xec55;" 
d="M652 895q-56 -19 -122 -19q-149 0 -254 93t-105 225q0 111 76 196t192 112q11 156 141.5 265.5t311.5 109.5q130 0 237 -59.5t164 -155.5q64 17 131 17q187 0 320 -118t133 -284q0 -167 -133 -284t-320 -117q-68 0 -119 14q-137 -87 -323 -87q-193 0 -330 92zM874 509
q-21 53 40 139t65 86l61.5 -86t41.5 -138q-29 -78 -104 -78q-74 0 -104 77zM548 574q-21 53 40 139.5t64 86.5q0 -1 62 -87t42 -138q-30 -79 -104 -79t-104 78z" />
    <glyph glyph-name="uniEC56" unicode="&#xec56;" 
d="M652 895q-56 -19 -122 -19q-149 0 -254 93t-105 225q0 111 76 196t192 112q11 156 141.5 265.5t311.5 109.5q130 0 237 -59.5t164 -155.5q64 17 131 17q187 0 320 -118t133 -284q0 -167 -133 -284t-320 -117q-68 0 -119 14q-137 -87 -323 -87q-193 0 -330 92zM874 509
q-21 53 40 139t65 86l61.5 -86t41.5 -138q-29 -78 -104 -78q-74 0 -104 77zM1200 574q-21 53 40 139.5t65 86.5q0 -1 61.5 -87t42.5 -138q-31 -79 -105 -79t-104 78zM548 574q-21 53 40 139.5t64 86.5q0 -1 62 -87t42 -138q-30 -79 -104 -79t-104 78z" />
    <glyph glyph-name="uniEC57" unicode="&#xec57;" 
d="M652 895q-56 -19 -122 -19q-149 0 -254 93t-105 225q0 111 76 196t192 112q11 156 141.5 265.5t311.5 109.5q130 0 237 -59.5t164 -155.5q64 17 131 17q187 0 320 -118t133 -284q0 -167 -133 -284t-320 -117q-68 0 -119 14q-137 -87 -323 -87q-193 0 -330 92zM452 751h62
v-208h-62v208zM514 481v-208h-62v208h62zM707 751h63v-208h-63v208zM770 481v-208h-63v208h63zM963 751h62v-208h-62v208zM1025 481v-208h-62v208h62zM1218 751h63v-208h-63v208zM1281 481v-208h-63v208h63zM1474 751h62v-208h-62v208zM1536 481v-208h-62v208h62z" />
    <glyph glyph-name="uniEC58" unicode="&#xec58;" 
d="M652 895q-56 -19 -122 -19q-149 0 -254 93t-105 225q0 111 76 196t192 112q11 156 141.5 265.5t311.5 109.5q130 0 237 -59.5t164 -155.5q64 17 131 17q187 0 320 -118t133 -284q0 -167 -133 -284t-320 -117q-68 0 -119 14q-137 -87 -323 -87q-193 0 -330 92zM1536 326
v-33v-32q-136 -102 -271.5 -90.5t-271 45.5t-271 45t-270.5 -90v31.5v32.5q135 102 270.5 90.5t271 -45.5t271 -45t271.5 91zM1536 455v-32.5v-31.5q-136 -102 -271.5 -91t-271 44.5t-271 45t-270.5 -89.5v32v33q135 101 270.5 89.5t271 -45t271 -45t271.5 90.5zM452 751h62
v-208h-62v208zM707 751h63v-208h-63v208zM963 751h62v-208h-62v208zM1218 751h63v-208h-63v208zM1474 751h62v-208h-62v208z" />
    <glyph glyph-name="uniEC5F" unicode="&#xec5f;" 
d="M652 895q-56 -19 -122 -19q-149 0 -254 93t-105 225q0 111 76 196t192 112q11 156 141.5 265.5t311.5 109.5q130 0 237 -59.5t164 -155.5q64 17 131 17q187 0 320 -118t133 -284q0 -167 -133 -284t-320 -117q-68 0 -119 14q-137 -87 -323 -87q-193 0 -330 92zM802 680
v-83l72 42l30 108l42 -11l-30 -108l109 -29l-11 -43l-109 29l-72 -42l72 -41l109 28l11 -42l-109 -29l30 -108l-42 -12l-30 109l-72 41v-82l79 -81l-31 -31l-79 80l-79 -80l-32 31l80 81v82l-72 -41l-30 -109l-42 12l29 108l-109 29l12 42l109 -28l71 41l-71 42l-109 -29
l-12 43l109 29l-29 108l42 11l30 -108l72 -42v83l-80 80l32 32l79 -81l79 81l31 -32zM1574 301q-40 24 -44 109t-2 87l82.5 -24.5t96.5 -66.5q18 -68 -28 -103q-47 -37 -105 -2zM1584 591q-48 28 -52.5 129.5t-1.5 103.5l97.5 -28.5t113.5 -79.5q23 -78 -33 -122
q-57 -44 -124 -3zM1272 491q-43 25 -47.5 117.5t-1.5 94.5l89 -26t104 -73q22 -72 -30 -111q-51 -40 -114 -2z" />
    <glyph glyph-name="uniEC68" unicode="&#xec68;" 
d="M652 895q-56 -19 -122 -19q-149 0 -254 93t-105 225q0 111 76 196t192 112q11 156 141.5 265.5t311.5 109.5q130 0 237 -59.5t164 -155.5q64 17 131 17q187 0 320 -118t133 -284q0 -167 -133 -284t-320 -117q-68 0 -119 14q-137 -87 -323 -87q-193 0 -330 92zM1466 462
q-15 36 26.5 94t43.5 58l41.5 -58t28.5 -93q-19 -53 -70 -53q-50 0 -70 52zM954 462q-15 36 26.5 94t43.5 58l41.5 -58t28.5 -93q-19 -53 -70 -53q-50 0 -70 52zM442 462q-15 36 26.5 94t43.5 58l41.5 -58t29.5 -93q-21 -53 -71 -53t-70 52z" />
    <glyph glyph-name="uniEC69" unicode="&#xec69;" 
d="M442 462q-15 36 26.5 94t43.5 58l41.5 -58t29.5 -93q-21 -53 -71 -53t-70 52zM652 895q-56 -19 -122 -19q-149 0 -254 93t-105 225q0 111 76 196t192 112q11 156 141.5 265.5t311.5 109.5q130 0 237 -59.5t164 -155.5q64 17 131 17q187 0 320 -118t133 -284
q0 -167 -133 -284t-320 -117q-68 0 -119 14q-137 -87 -323 -87q-193 0 -330 92zM698 599q-15 36 26.5 94t43.5 58l41.5 -58t29.5 -94q-21 -53 -71 -53t-70 53zM1210 599q-15 36 26.5 94t43.5 58l41.5 -58t28.5 -94q-19 -53 -70 -53q-50 0 -70 53zM1466 462q-15 36 26.5 94
t43.5 58l41.5 -58t28.5 -93q-19 -53 -70 -53q-50 0 -70 52zM954 462q-15 36 26.5 94t43.5 58l41.5 -58t28.5 -93q-19 -53 -70 -53q-50 0 -70 52z" />
    <glyph glyph-name="uniEC6A" unicode="&#xec6a;" 
d="M652 895q-56 -19 -122 -19q-149 0 -254 93t-105 225q0 111 76 196t192 112q11 156 141.5 265.5t311.5 109.5q130 0 237 -59.5t164 -155.5q64 17 131 17q187 0 320 -118t133 -284q0 -167 -133 -284t-320 -117q-68 0 -119 14q-137 -87 -323 -87q-193 0 -330 92zM698 326
q-15 36 26.5 94t43.5 58l41.5 -58t29.5 -93q-21 -54 -71 -54t-70 53zM1210 326q-15 36 26.5 94t43.5 58l41.5 -58t28.5 -93q-19 -54 -70 -54q-50 0 -70 53zM698 599q-15 36 26.5 94t43.5 58l41.5 -58t29.5 -94q-21 -53 -71 -53t-70 53zM1210 599q-15 36 26.5 94t43.5 58
l41.5 -58t28.5 -94q-19 -53 -70 -53q-50 0 -70 53zM1466 462q-15 36 26.5 94t43.5 58l41.5 -58t28.5 -93q-19 -53 -70 -53q-50 0 -70 52zM954 462q-15 36 26.5 94t43.5 58l41.5 -58t28.5 -93q-19 -53 -70 -53q-50 0 -70 52zM442 462q-15 36 26.5 94t43.5 58l41.5 -58
t29.5 -93q-21 -53 -71 -53t-70 52z" />
    <glyph glyph-name="uniEC73" unicode="&#xec73;" 
d="M515 1173q-39 -13 -87 -13q-107 0 -182 66.5t-75 161.5q0 79 54.5 140t137.5 80q8 112 101.5 190.5t222.5 78.5q197 0 288 -154q43 12 93 12q134 0 229.5 -84.5t95.5 -202.5v-3v-2q-111 93 -263 93t-261.5 -92t-118.5 -224q-93 -22 -154 -86q-40 13 -81 39zM698 326
q-15 36 26.5 94t43.5 58l41.5 -58t29.5 -93q-21 -54 -71 -54t-70 53zM1210 326q-15 36 26.5 94t43.5 58l41.5 -58t28.5 -93q-19 -54 -70 -54q-50 0 -70 53zM1466 462q-15 36 26.5 94t43.5 58l41.5 -58t28.5 -93q-19 -53 -70 -53q-50 0 -70 52zM954 462q-15 36 26.5 94
t43.5 58l41.5 -58t28.5 -93q-19 -53 -70 -53q-50 0 -70 52zM442 462q-15 36 26.5 94t43.5 58l41.5 -58t29.5 -93q-21 -53 -71 -53t-70 52zM964 753q-40 -14 -91 -14q-111 0 -189 69t-78 167q0 83 56.5 146t143.5 84q8 117 105 198.5t232 81.5q204 0 299 -160q46 12 97 12
q140 0 239 -88t99 -211q0 -125 -99 -212t-239 -87q-48 0 -89 10q-101 -65 -240 -65q-145 0 -246 69z" />
    <glyph glyph-name="uniECB8" unicode="&#xecb8;" 
d="M652 895q-56 -19 -122 -19q-149 0 -254 93t-105 225q0 111 76 196t192 112q11 156 141.5 265.5t311.5 109.5q130 0 237 -59.5t164 -155.5q64 17 131 17q187 0 320 -118t133 -284q0 -167 -133 -284t-320 -117q-68 0 -119 14q-137 -87 -323 -87q-193 0 -330 92zM1047 655
v-62l54 31l23 82l31 -9l-22 -81l82 -22l-9 -32l-81 22l-54 -31l54 -31l81 21l9 -32l-82 -21l22 -82l-31 -8l-23 81l-54 31v-62l60 -60l-24 -23l-59 60l-59 -60l-24 23l60 60v62l-54 -31l-23 -81l-31 8l22 82l-82 21l9 32l81 -21l54 31l-54 31l-81 -22l-9 32l82 22l-22 81
l31 9l23 -82l54 -31v62l-60 60l24 24l59 -60l59 60l24 -24z" />
    <glyph glyph-name="uniECB9" unicode="&#xecb9;" 
d="M652 895q-56 -19 -122 -19q-149 0 -254 93t-105 225q0 111 76 196t192 112q11 156 141.5 265.5t311.5 109.5q130 0 237 -59.5t164 -155.5q64 17 131 17q187 0 320 -118t133 -284q0 -167 -133 -284t-320 -117q-68 0 -119 14q-137 -87 -323 -87q-193 0 -330 92zM573 749
v-58l50 29l21 76l30 -8l-21 -76l76 -20l-7 -30l-77 20l-50 -29l50 -29l77 20l7 -30l-76 -19l21 -76l-30 -8l-21 76l-50 28v-58l56 -56l-22 -21l-56 56l-55 -56l-22 21l55 56v58l-50 -28l-21 -76l-29 8l20 76l-76 19l8 30l77 -20l50 29l-50 29l-77 -20l-8 30l76 20l-20 76
l29 8l21 -76l50 -29v58l-55 56l22 22l55 -56l56 56l22 -22zM1047 655v-62l54 31l23 82l31 -9l-22 -81l82 -22l-9 -32l-81 22l-54 -31l54 -31l81 21l9 -32l-82 -21l22 -82l-31 -8l-23 81l-54 31v-62l60 -60l-24 -23l-59 60l-59 -60l-24 23l60 60v62l-54 -31l-23 -81l-31 8
l22 82l-82 21l9 32l81 -21l54 31l-54 31l-81 -22l-9 32l82 22l-22 81l31 9l23 -82l54 -31v62l-60 60l24 24l59 -60l59 60l24 -24z" />
    <glyph glyph-name="uniECBA" unicode="&#xecba;" 
d="M652 895q-56 -19 -122 -19q-149 0 -254 93t-105 225q0 111 76 196t192 112q11 156 141.5 265.5t311.5 109.5q130 0 237 -59.5t164 -155.5q64 17 131 17q187 0 320 -118t133 -284q0 -167 -133 -284t-320 -117q-68 0 -119 14q-137 -87 -323 -87q-193 0 -330 92zM1524 749
v-58l50 29l21 76l30 -8l-21 -76l76 -20l-8 -30l-76 20l-50 -29l50 -29l76 20l8 -30l-76 -19l21 -76l-30 -8l-21 76l-50 28v-58l55 -56l-21 -21l-56 56l-55 -56l-22 21l55 56v58l-50 -28l-21 -76l-29 8l20 76l-76 19l8 30l76 -20l51 29l-51 29l-76 -20l-8 30l76 20l-20 76
l29 8l21 -76l50 -29v58l-55 56l22 22l55 -56l56 56l21 -22zM573 749v-58l50 29l21 76l30 -8l-21 -76l76 -20l-7 -30l-77 20l-50 -29l50 -29l77 20l7 -30l-76 -19l21 -76l-30 -8l-21 76l-50 28v-58l56 -56l-22 -21l-56 56l-55 -56l-22 21l55 56v58l-50 -28l-21 -76l-29 8
l20 76l-76 19l8 30l77 -20l50 29l-50 29l-77 -20l-8 30l76 20l-20 76l29 8l21 -76l50 -29v58l-55 56l22 22l55 -56l56 56l22 -22zM1047 655v-62l54 31l23 82l31 -9l-22 -81l82 -22l-9 -32l-81 22l-54 -31l54 -31l81 21l9 -32l-82 -21l22 -82l-31 -8l-23 81l-54 31v-62
l60 -60l-24 -23l-59 60l-59 -60l-24 23l60 60v62l-54 -31l-23 -81l-31 8l22 82l-82 21l9 32l81 -21l54 31l-54 31l-81 -22l-9 32l82 22l-22 81l31 9l23 -82l54 -31v62l-60 60l24 24l59 -60l59 60l24 -24z" />
    <glyph glyph-name="uniECC3" unicode="&#xecc3;" 
d="M652 895q-56 -19 -122 -19q-149 0 -254 93t-105 225q0 111 76 196t192 112q11 156 141.5 265.5t311.5 109.5q130 0 237 -59.5t164 -155.5q64 17 131 17q187 0 320 -118t133 -284q0 -167 -133 -284t-320 -117q-68 0 -119 14q-137 -87 -323 -87q-193 0 -330 92zM1064 373
l138 139h78l-138 -139h-78zM1341 575h-77l137 139h78zM809 373l137 139h78l-138 -139h-77zM1086 575h-78l138 139h77zM675 733v-58l50 28l21 76l30 -8l-21 -75l76 -20l-8 -30l-76 20l-50 -29l50 -29l76 20l8 -30l-76 -20l21 -76l-30 -8l-21 76l-50 29v-58l55 -56l-22 -22
l-55 56l-56 -56l-22 22l56 56v58l-50 -29l-21 -76l-30 8l21 76l-76 20l8 30l76 -20l50 29l-50 29l-76 -20l-8 30l76 20l-21 75l30 8l21 -76l50 -28v58l-56 56l22 21l56 -56l55 56l22 -21z" />
    <glyph glyph-name="uniECC4" unicode="&#xecc4;" 
d="M652 895q-56 -19 -122 -19q-149 0 -254 93t-105 225q0 111 76 196t192 112q11 156 141.5 265.5t311.5 109.5q130 0 237 -59.5t164 -155.5q64 17 131 17q187 0 320 -118t133 -284q0 -167 -133 -284t-320 -117q-68 0 -119 14q-137 -87 -323 -87q-193 0 -330 92zM994 720h62
v-208h-62v208zM1056 450v-208h-62v208h62zM1249 720h63v-208h-63v208zM1312 450v-208h-63v208h63zM1505 720h62v-208h-62v208zM1567 450v-208h-62v208h62zM675 733v-58l50 28l21 76l30 -8l-21 -75l76 -20l-8 -30l-76 20l-50 -29l50 -29l76 20l8 -30l-76 -20l21 -76l-30 -8
l-21 76l-50 29v-58l55 -56l-22 -22l-55 56l-56 -56l-22 22l56 56v58l-50 -29l-21 -76l-30 8l21 76l-76 20l8 30l76 -20l50 29l-50 29l-76 -20l-8 30l76 20l-21 75l30 8l21 -76l50 -28v58l-56 56l22 21l56 -56l55 56l22 -21z" />
    <glyph glyph-name="uniECC7" unicode="&#xecc7;" 
d="M652 895q-56 -19 -122 -19q-149 0 -254 93t-105 225q0 111 76 196t192 112q11 156 141.5 265.5t311.5 109.5q130 0 237 -59.5t164 -155.5q64 17 131 17q187 0 320 -118t133 -284q0 -167 -133 -284t-320 -117q-68 0 -119 14q-137 -87 -323 -87q-193 0 -330 92zM1454 574
q-31 -78 -104 -78q-75 0 -104 79q-21 52 41 138t63 87q3 0 64 -86.5t40 -139.5zM675 733v-58l50 28l21 76l30 -8l-21 -75l76 -20l-8 -30l-76 20l-50 -29l50 -29l76 20l8 -30l-76 -20l21 -76l-30 -8l-21 76l-50 29v-58l55 -56l-22 -22l-55 56l-56 -56l-22 22l56 56v58
l-50 -29l-21 -76l-30 8l21 76l-76 20l8 30l76 -20l50 29l-50 29l-76 -20l-8 30l76 20l-21 75l30 8l21 -76l50 -28v58l-56 56l22 21l56 -56l55 56l22 -21z" />
    <glyph glyph-name="uniECC8" unicode="&#xecc8;" 
d="M675 733v-58l50 28l21 76l30 -8l-21 -75l76 -20l-8 -30l-76 20l-50 -29l50 -29l76 20l8 -30l-76 -20l21 -76l-30 -8l-21 76l-50 29v-58l55 -56l-22 -22l-55 56l-56 -56l-22 22l56 56v58l-50 -29l-21 -76l-30 8l21 76l-76 20l8 30l76 -20l50 29l-50 29l-76 -20l-8 30
l76 20l-21 75l30 8l21 -76l50 -28v58l-56 56l22 21l56 -56l55 56l22 -21zM652 895q-56 -19 -122 -19q-149 0 -254 93t-105 225q0 111 76 196t192 112q11 156 141.5 265.5t311.5 109.5q130 0 237 -59.5t164 -155.5q64 17 131 17q187 0 320 -118t133 -284q0 -167 -133 -284
t-320 -117q-68 0 -119 14q-137 -87 -323 -87q-193 0 -330 92zM1128 509q-31 -77 -104 -77q-76 0 -104 78q-21 52 41 138t63 86q2 0 63.5 -86t40.5 -139zM1454 574q-31 -78 -104 -78q-75 0 -104 79q-21 52 41 138t63 87q3 0 64 -86.5t40 -139.5z" />
    <glyph glyph-name="uniECCC" unicode="&#xeccc;" 
d="M652 895q-56 -19 -122 -19q-149 0 -254 93t-105 225q0 111 76 196t192 112q11 156 141.5 265.5t311.5 109.5q130 0 237 -59.5t164 -155.5q64 17 131 17q187 0 320 -118t133 -284q0 -167 -133 -284t-320 -117q-68 0 -119 14q-137 -87 -323 -87q-193 0 -330 92zM1126 589
l76 -20l-8 -30l-76 20l-50 -29l50 -29l76 20l8 -30l-76 -20l21 -76l-30 -8l-21 76l-50 29v-58l55 -56l-22 -22l-55 56l-55 -56l-22 22l55 56v58l-50 -29l-21 -76l-30 8l21 76l-76 20l8 30l76 -20l50 29l-50 29l-76 -20l-8 30l76 20l102 -59zM1638 589l76 -20l-8 -30l-76 20
l-50 -29l50 -29l76 20l8 -30l-76 -20l21 -76l-30 -8l-21 76l-50 29v-58l55 -56l-22 -22l-55 56l-56 -56l-21 22l55 56v58l-50 -29l-21 -76l-30 8l21 76l-76 20l8 30l76 -20l50 29l-50 29l-76 -20l-8 30l76 20l102 -59zM614 589l76 -20l-8 -30l-76 20l-50 -29l50 -29l76 20
l8 -30l-76 -20l21 -76l-30 -8l-21 76l-50 29v-58l55 -56l-21 -22l-56 56l-55 -56l-22 22l55 56v58l-50 -29l-21 -76l-30 8l21 76l-76 20l8 30l76 -20l50 29l-50 29l-76 -20l-8 30l76 20l102 -59z" />
    <glyph glyph-name="uniECCD" unicode="&#xeccd;" 
d="M614 589l76 -20l-8 -30l-76 20l-50 -29l50 -29l76 20l8 -30l-76 -20l21 -76l-30 -8l-21 76l-50 29v-58l55 -56l-21 -22l-56 56l-55 -56l-22 22l55 56v58l-50 -29l-21 -76l-30 8l21 76l-76 20l8 30l76 -20l50 29l-50 29l-76 -20l-8 30l76 20l102 -59zM652 895
q-56 -19 -122 -19q-149 0 -254 93t-105 225q0 111 76 196t192 112q11 156 141.5 265.5t311.5 109.5q130 0 237 -59.5t164 -155.5q64 17 131 17q187 0 320 -118t133 -284q0 -167 -133 -284t-320 -117q-68 0 -119 14q-137 -87 -323 -87q-193 0 -330 92zM1372 799l68 -18
l-7 -27l-69 18l-45 -26l45 -26l69 18l7 -27l-68 -18l18 -68l-26 -7l-19 68l-45 26v-52l49 -51l-19 -19l-50 50l-50 -50l-20 19l50 51v52l-45 -26l-19 -68l-27 7l19 68l-68 18l7 27l68 -18l45 26l-45 26l-68 -18l-7 27l68 18l92 -53zM860 799l68 -18l-7 -27l-68 18l-45 -26
l45 -26l68 18l7 -27l-68 -18l19 -68l-27 -7l-19 68l-45 26v-52l50 -51l-20 -19l-50 50l-50 -50l-19 19l49 51v52l-45 -26l-19 -68l-26 7l18 68l-68 18l7 27l69 -18l45 26l-45 26l-69 -18l-7 27l68 18l92 -53zM1126 589l76 -20l-8 -30l-76 20l-50 -29l50 -29l76 20l8 -30
l-76 -20l21 -76l-30 -8l-21 76l-50 29v-58l55 -56l-22 -22l-55 56l-55 -56l-22 22l55 56v58l-50 -29l-21 -76l-30 8l21 76l-76 20l8 30l76 -20l50 29l-50 29l-76 -20l-8 30l76 20l102 -59zM1638 589l76 -20l-8 -30l-76 20l-50 -29l50 -29l76 20l8 -30l-76 -20l21 -76l-30 -8
l-21 76l-50 29v-58l55 -56l-22 -22l-55 56l-56 -56l-21 22l55 56v58l-50 -29l-21 -76l-30 8l21 76l-76 20l8 30l76 -20l50 29l-50 29l-76 -20l-8 30l76 20l102 -59z" />
    <glyph glyph-name="uniECCE" unicode="&#xecce;" 
d="M652 895q-56 -19 -122 -19q-149 0 -254 93t-105 225q0 111 76 196t192 112q11 156 141.5 265.5t311.5 109.5q130 0 237 -59.5t164 -155.5q64 17 131 17q187 0 320 -118t133 -284q0 -167 -133 -284t-320 -117q-68 0 -119 14q-137 -87 -323 -87q-193 0 -330 92zM1362 380
l60 -16l-6 -24l-61 16l-40 -23l40 -23l61 16l6 -24l-60 -16l16 -61l-24 -6l-16 61l-41 23v-47l45 -44l-18 -18l-44 45l-44 -45l-18 18l44 44v47l-40 -23l-16 -61l-24 6l16 61l-61 16l7 24l61 -16l40 23l-40 23l-61 -16l-7 24l61 16l82 -47zM850 380l61 -16l-7 -24l-61 16
l-40 -23l40 -23l61 16l7 -24l-61 -16l16 -61l-24 -6l-16 61l-40 23v-47l44 -44l-18 -18l-44 45l-44 -45l-18 18l45 44v47l-41 -23l-16 -61l-24 6l16 61l-60 16l6 24l61 -16l40 23l-40 23l-61 -16l-6 24l60 16l82 -47zM1372 799l68 -18l-7 -27l-69 18l-45 -26l45 -26l69 18
l7 -27l-68 -18l18 -68l-26 -7l-19 68l-45 26v-52l49 -51l-19 -19l-50 50l-50 -50l-20 19l50 51v52l-45 -26l-19 -68l-27 7l19 68l-68 18l7 27l68 -18l45 26l-45 26l-68 -18l-7 27l68 18l92 -53zM860 799l68 -18l-7 -27l-68 18l-45 -26l45 -26l68 18l7 -27l-68 -18l19 -68
l-27 -7l-19 68l-45 26v-52l50 -51l-20 -19l-50 50l-50 -50l-19 19l49 51v52l-45 -26l-19 -68l-26 7l18 68l-68 18l7 27l69 -18l45 26l-45 26l-69 -18l-7 27l68 18l92 -53zM1126 589l76 -20l-8 -30l-76 20l-50 -29l50 -29l76 20l8 -30l-76 -20l21 -76l-30 -8l-21 76l-50 29
v-58l55 -56l-22 -22l-55 56l-55 -56l-22 22l55 56v58l-50 -29l-21 -76l-30 8l21 76l-76 20l8 30l76 -20l50 29l-50 29l-76 -20l-8 30l76 20l102 -59zM1638 589l76 -20l-8 -30l-76 20l-50 -29l50 -29l76 20l8 -30l-76 -20l21 -76l-30 -8l-21 76l-50 29v-58l55 -56l-22 -22
l-55 56l-56 -56l-21 22l55 56v58l-50 -29l-21 -76l-30 8l21 76l-76 20l8 30l76 -20l50 29l-50 29l-76 -20l-8 30l76 20l102 -59zM614 589l76 -20l-8 -30l-76 20l-50 -29l50 -29l76 20l8 -30l-76 -20l21 -76l-30 -8l-21 76l-50 29v-58l55 -56l-21 -22l-56 56l-55 -56l-22 22
l55 56v58l-50 -29l-21 -76l-30 8l21 76l-76 20l8 30l76 -20l50 29l-50 29l-76 -20l-8 30l76 20l102 -59z" />
    <glyph glyph-name="uniED1D" unicode="&#xed1d;" 
d="M1877 1139v-96v-25l-20 -15q-216 -162 -426 -145.5t-419 69.5q-192 48 -383.5 64.5t-377.5 -122.5l-80 -61v101v96v25l20 15q215 162 425 145t420 -69q192 -48 383 -65t378 123l80 61v-101zM1877 627v-96v-25l-20 -15q-216 -162 -426 -145.5t-419 69.5q-192 48 -383.5 65
t-377.5 -123l-80 -61v101v96v25l20 15q215 162 425 145t420 -69q192 -48 383 -65t378 123l80 61v-101zM1877 1651v-96v-25l-20 -15q-216 -162 -426 -145.5t-419 69.5q-192 48 -383.5 64.5t-377.5 -122.5l-80 -61v101v96v25l20 15q215 162 425 145t420 -69q192 -48 383 -65.5
t378 123.5l80 61v-101z" />
    <glyph glyph-name="uniED27" unicode="&#xed27;" 
d="M1877 1651v-96v-25l-20 -15q-216 -162 -426 -145.5t-419 69.5q-192 48 -383.5 64.5t-377.5 -122.5l-80 -61v101v96v25l20 15q215 162 425 145t420 -69q192 -48 383 -65.5t378 123.5l80 61v-101zM171 394v237h1706v-237h-1706zM171 899v236h1706v-236h-1706z" />
    <glyph glyph-name="uniED31" unicode="&#xed31;" 
d="M171 906v236h1706v-236h-1706zM171 1417v237h1706v-237h-1706zM171 394v237h1706v-237h-1706z" />
    <glyph glyph-name="uniED3B" unicode="&#xed3b;" horiz-adv-x="2007" 
d="M1388 426q-49 -110 -193.5 -181t-330.5 -71q-227 0 -386.5 102t-159.5 246q0 72 45 139q-112 89 -112 201q0 71 48 135q-128 92 -128 204q0 119 139.5 211t353.5 124q-115 -42 -183.5 -108t-68.5 -143q0 -129 177 -219t428 -90q311 0 492 128q-62 -109 -242.5 -180
t-413.5 -71q-209 0 -382 59q21 -117 175.5 -196.5t366.5 -79.5q278 0 442 129q-55 -109 -217.5 -180.5t-372.5 -71.5q-195 0 -352 63q17 -118 155 -198.5t327 -80.5q247 0 393 129zM944 1289l199 202h112l-199 -202h-112zM1344 1581h-112l199 201h112zM575 1289l199 202h112
l-199 -202h-112zM975 1581h-112l198 201h113zM1313 1289l199 202h112l-199 -202h-112zM1713 1581h-112l199 201h112z" />
    <glyph glyph-name="uniED45" unicode="&#xed45;" 
d="M171 394v237h1706v-237h-1706zM1877 1651v-96v-25l-20 -15q-216 -162 -426 -145.5t-419 69.5q-192 48 -383.5 64.5t-377.5 -122.5l-80 -61v101v96v25l20 15q215 162 425 145t420 -69q192 -48 383 -65.5t378 123.5l80 61v-101zM1877 1139v-96v-25l-20 -15
q-216 -162 -426 -145.5t-419 69.5q-192 48 -383.5 64.5t-377.5 -122.5l-80 -61v101v96v25l20 15q215 162 425 145t420 -69q192 -48 383 -65t378 123l80 61v-101z" />
    <glyph glyph-name="uniED4F" unicode="&#xed4f;" horiz-adv-x="2014" 
d="M1811 884q-45 -99 -174 -162.5t-296 -63.5q-202 0 -345 91.5t-143 220.5q0 64 41 124q-101 80 -101 180q0 62 44 121q-115 81 -115 182q0 107 124.5 189.5t316.5 110.5q-103 -38 -164.5 -97t-61.5 -128q0 -114 158.5 -195t383.5 -81q279 0 440 115q-55 -98 -216.5 -162
t-370.5 -64q-188 0 -342 54q19 -105 157.5 -176t327.5 -71q251 0 396 115q-50 -98 -195 -161.5t-333 -63.5q-172 0 -316 56q15 -105 139 -177.5t293 -72.5q222 0 352 116zM1877 627v-96v-25l-20 -15q-216 -162 -426 -145.5t-419 69.5q-192 48 -383.5 65t-377.5 -123l-80 -61
v101v96v25l20 15q215 162 425 145t420 -69q192 -48 383 -65t378 123l80 61v-101z" />
    <glyph glyph-name="uniED59" unicode="&#xed59;" horiz-adv-x="2014" 
d="M1811 884q-45 -99 -174 -162.5t-296 -63.5q-202 0 -345 91.5t-143 220.5q0 64 41 124q-101 80 -101 180q0 62 44 121q-115 81 -115 182q0 107 124.5 189.5t316.5 110.5q-103 -38 -164.5 -97t-61.5 -128q0 -114 158.5 -195t383.5 -81q279 0 440 115q-55 -98 -216.5 -162
t-370.5 -64q-188 0 -342 54q19 -105 157.5 -176t327.5 -71q251 0 396 115q-50 -98 -195 -161.5t-333 -63.5q-172 0 -316 56q15 -105 139 -177.5t293 -72.5q222 0 352 116zM171 394v237h1706v-237h-1706z" />
    <glyph glyph-name="uniED5A" unicode="&#xed5a;" 
d="M171 171v341l616 275h49l79 -80l-71 -71l230 -84l-176 -123l232 -115l-40 97l215 181l-208 74l113 121h51l616 -275v-341h-1706zM999 773h-78l-138 140h78zM722 975l-138 139h78l137 -139h-77zM1049 773l138 140h78l-138 -140h-78zM1326 975h-77l137 139h78zM758 1175
q-42 -14 -88 -14q-107 0 -182 66.5t-75 161.5q0 79 54.5 140t137.5 81q8 112 101.5 190.5t222.5 78.5q195 0 288 -154q43 12 93 12q135 0 230 -84.5t95 -203.5q0 -120 -95 -204t-230 -84q-40 0 -85 10q-98 -62 -231 -62q-138 0 -236 66z" />
    <glyph glyph-name="uniED63" unicode="&#xed63;" 
d="M652 895q-56 -19 -122 -19q-149 0 -254 93t-105 225q0 111 76 196t192 112q11 156 141.5 265.5t311.5 109.5q130 0 237 -59.5t164 -155.5q64 17 131 17q187 0 320 -118t133 -284q0 -167 -133 -284t-320 -117q-68 0 -119 14q-137 -87 -323 -87q-193 0 -330 92zM1488 815
q105 -50 105 -110q0 -56 -92 -102q35 -34 35 -69q0 -58 -86 -105q29 -33 29 -67q0 -78 -133.5 -133.5t-321.5 -55.5q-189 0 -322 55.5t-133 133.5q0 34 29 67q-86 47 -86 105q0 35 35 69q-92 46 -92 102q0 74 152 129q153 -101 370 -101q211 0 364 98q62 -16 135 -16h6h6z
" />
    <glyph glyph-name="uniED6D" unicode="&#xed6d;" 
d="M515 1173q-39 -13 -87 -13q-107 0 -182 66.5t-75 161.5q0 79 54.5 140t137.5 80q8 112 101.5 190.5t222.5 78.5q197 0 288 -154q43 12 93 12q134 0 229.5 -84.5t95.5 -202.5v-3v-2q-111 93 -263 93t-261.5 -92t-118.5 -224q-93 -22 -154 -86q-40 13 -81 39zM896 320
q-27 -65 -108 -107t-186 -42q-127 0 -216 60t-89 147q0 45 25 82q-63 53 -63 119q0 41 27 81q-72 54 -72 120q0 71 78.5 125.5t198.5 73.5q-142 -55 -142 -149q0 -76 99 -129.5t240 -53.5q173 0 276 76q-35 -65 -136 -107t-232 -42q-117 0 -214 35q12 -69 98.5 -116.5
t204.5 -47.5q157 0 249 77q-32 -66 -123 -108t-208 -42q-110 0 -197 38q9 -70 86.5 -118t183.5 -48q139 0 220 76zM964 753q-40 -14 -91 -14q-111 0 -189 69t-78 167q0 83 56.5 146t143.5 84q8 117 105 198.5t232 81.5q204 0 299 -160q46 12 97 12q140 0 239 -88t99 -211
q0 -125 -99 -212t-239 -87q-48 0 -89 10q-101 -65 -240 -65q-145 0 -246 69z" />
    <glyph glyph-name="uniED80" unicode="&#xed80;" horiz-adv-x="1851" 
d="M1024 171l-146 252q-178 43 -301 174h-292l146 253q-25 85 -25 174q0 88 25 174l-146 253h292q123 130 301 174l146 252l146 -252q177 -44 301 -174h292l-146 -253q25 -86 25 -174q0 -89 -25 -174l146 -253h-292q-124 -131 -301 -174z" />
    <glyph glyph-name="uniF168" unicode="&#xf168;" horiz-adv-x="1344" 
d="M1024 1877q129 0 256 -39q-260 -82 -428.5 -305t-168.5 -509q0 -287 168.5 -510t428.5 -304q-127 -39 -256 -39q-354 0 -603.5 249.5t-249.5 603.5q0 353 249.5 603t603.5 250z" />
    <glyph glyph-name="uniED81" unicode="&#xed81;" 
d="M964 580q-44 -14 -91 -14q-111 0 -189 69t-78 168q0 83 56.5 146t143.5 84q8 117 105 198.5t232 81.5q205 0 299 -161q44 13 97 13q140 0 239 -88t99 -211q0 -125 -99 -212.5t-239 -87.5q-44 0 -89 11q-101 -65 -240 -65q-144 0 -246 68zM1083 1330
q-123 -17 -207.5 -98.5t-92.5 -192.5q-144 -34 -193 -155l-15 25q-117 28 -201 116h-194l97 168q-16 53 -16 116q0 62 16 116l-97 168h194q84 87 201 116l97 168l97 -168q118 -29 201 -116h194l-97 -168q14 -51 16 -95z" />
    <glyph glyph-name="uniF169" unicode="&#xf169;" 
d="M597 1877q64 0 128 -19q-130 -42 -214 -153t-84 -254q0 -144 84 -255.5t214 -152.5q-64 -19 -128 -19q-177 0 -301.5 125t-124.5 302q0 176 124.5 301t301.5 125zM964 580q-44 -14 -91 -14q-111 0 -189 69t-78 168q0 83 56.5 146t143.5 84q8 117 105 198.5t232 81.5
q205 0 299 -161q44 13 97 13q140 0 239 -88t99 -211q0 -125 -99 -212.5t-239 -87.5q-44 0 -89 11q-101 -65 -240 -65q-144 0 -246 68z" />
    <glyph glyph-name="uniED82" unicode="&#xed82;" horiz-adv-x="1980" 
d="M515 685q-42 -14 -87 -14q-107 0 -182 66.5t-75 161.5q0 79 54.5 140t137.5 80q8 113 101.5 191.5t222.5 78.5q196 0 288 -154q43 12 93 12q134 0 229.5 -84.5t95.5 -203.5v-2.5v-1.5q-112 92 -263 92q-152 0 -261.5 -91.5t-118.5 -223.5q-94 -22 -154 -87q-47 17 -81 40
zM1531 1037l-70 122q-83 19 -145 83h-140l70 122q-12 39 -12 83q0 43 12 84l-70 122h140q62 63 145 83l70 122l70 -122q84 -20 145 -83h140l-70 -122q12 -41 12 -84q0 -44 -12 -83l70 -122h-140q-61 -64 -145 -83zM964 264q-44 -14 -91 -14q-111 0 -189 69t-78 168
q0 82 56.5 145.5t143.5 83.5q8 117 105 198.5t232 81.5q204 0 299 -160q50 13 97 13q140 0 239 -88t99 -212t-99 -211.5t-239 -87.5q-48 0 -89 10q-100 -64 -240 -64q-144 0 -246 68z" />
    <glyph glyph-name="uniF16A" unicode="&#xf16a;" 
d="M515 685q-42 -14 -87 -14q-107 0 -182 66.5t-75 161.5q0 79 54.5 140t137.5 80q8 113 101.5 191.5t222.5 78.5q196 0 288 -154q43 12 93 12q134 0 229.5 -84.5t95.5 -203.5v-2.5v-1.5q-112 92 -263 92q-152 0 -261.5 -91.5t-118.5 -223.5q-94 -22 -154 -87q-47 17 -81 40
zM1749 1877q64 0 128 -19q-130 -42 -214 -153t-84 -254q0 -144 84 -255.5t214 -152.5q-64 -19 -128 -19q-177 0 -301.5 125t-124.5 302q0 176 124.5 301t301.5 125zM964 264q-44 -14 -91 -14q-111 0 -189 69t-78 168q0 82 56.5 145.5t143.5 83.5q8 117 105 198.5t232 81.5
q204 0 299 -160q50 13 97 13q140 0 239 -88t99 -212t-99 -211.5t-239 -87.5q-48 0 -89 10q-100 -64 -240 -64q-144 0 -246 68z" />
    <glyph glyph-name="uniED83" unicode="&#xed83;" 
d="M515 917q-42 -14 -87 -14q-107 0 -182 66.5t-75 161.5q0 79 54.5 140t137.5 80q8 113 101.5 191t222.5 78q197 0 288 -153q49 12 93 12q134 0 229.5 -84.5t95.5 -203.5v-3v-2q-111 93 -263 93t-261.5 -91.5t-118.5 -223.5q-95 -24 -154 -87q-47 17 -81 40zM964 496
q-44 -14 -91 -14q-111 0 -189 69t-78 168q0 82 56.5 145.5t143.5 83.5q8 117 105 198.5t232 81.5q204 0 299 -160q46 12 97 12q140 0 239 -87.5t99 -211.5t-99 -211.5t-239 -87.5q-48 0 -89 10q-100 -64 -240 -64q-144 0 -246 68z" />
    <glyph glyph-name="uniED84" unicode="&#xed84;" 
d="M652 578q-57 -18 -122 -18q-149 0 -254 93t-105 225q0 110 76 195t192 112q11 157 141.5 266.5t311.5 109.5q130 0 237 -59.5t164 -155.5q64 17 131 17q187 0 320 -118t133 -284q0 -167 -133 -284t-320 -117q-66 0 -119 13q-138 -86 -323 -86q-192 0 -330 91z" />
    <glyph glyph-name="uniEDE4" unicode="&#xede4;" 
d="M1024 171q33 353 -96 544t-297.5 342.5t-314 325.5t-145.5 494h1706q-36 -111 -46.5 -154t-105.5 -119q-261 -208 -275.5 -288t4 -183.5t-36 -306t-393.5 -655.5z" />
    <glyph glyph-name="uniEDE5" unicode="&#xede5;" horiz-adv-x="1677" 
d="M1024 1598q237 0 405.5 -168.5t168.5 -405.5q0 -102 -36 -199q6 -41 6 -82q0 -237 -167.5 -404.5t-404.5 -167.5q-90 0 -172 26q215 67 328 267q-64 -14 -128 -14q-238 0 -406 168t-168 406q0 101 36 199q-6 40 -6 82q0 237 167.5 404.5t404.5 167.5q89 0 172 -26
q-216 -68 -328 -267q63 14 128 14zM1024 1278q-105 0 -179.5 -74.5t-74.5 -179.5t74.5 -179.5t179.5 -74.5t179.5 74.5t74.5 179.5t-74.5 179.5t-179.5 74.5z" />
    <glyph glyph-name="uniEDE6" unicode="&#xede6;" 
d="M450 1039v0q0 3 0.5 7t0.5 7v0q0 10 1 15v0q0 3 0.5 7t0.5 7v1q0 3 0.5 6.5t1.5 6.5v2q0 4 2 12v2q-3 -12 2 13v1q0 3 1 6l2 6v1v2q2 8 2 11q1 1 1 3q0 3 1 5.5t2 5.5q0 2 1 3q0 2 0.5 4.5t1.5 5.5q1 1 1 4q0 2 1 4t2 5q0 1 0.5 2l1.5 3q0 2 1 4t2 5l0.5 1.5t0.5 2.5
q0 2 1 4t2 5l0.5 1.5t1.5 2.5v0q-6 40 -6 82q0 237 167.5 404.5t404.5 167.5q89 0 172 -26q-216 -68 -328 -267v0q3 0 11 2q2 0 3 1q3 0 11 2h1h2q3 0 6 0.5t6 1.5h0.5t1.5 1q3 0 6 0.5t6 0.5h2q3 0 6.5 0.5t6.5 1.5h1q3 0 6.5 0.5t7.5 0.5v0q5 1 14 1h1q3 0 6.5 0.5
t7.5 0.5v0h7h8v0h7h8v0q3 0 7 -0.5t7 -0.5v0q10 0 15 -1v0q3 0 7 -0.5t7 -0.5h1q3 -1 6.5 -1.5t6.5 -0.5h2q3 0 13 -2h1q-12 3 13 -2h1l6 -2t6 -1h1h2q8 -2 11 -2l3 -1q3 -1 5.5 -2t5.5 -1q2 0 3 -1q2 -1 4.5 -1.5t5.5 -0.5q1 -1 4 -1q6 -2 10 -3l4 -2l4 -2t5 -1q1 0 2 -0.5
t2 -0.5l4 -2t5 -1q0 -1 1.5 -1.5t2.5 -0.5v0q40 6 82 6q237 0 404.5 -167.5t167.5 -404.5q0 -90 -26 -172q-68 215 -267 328q0 -3 2 -11q0 -2 1 -3q0 -5 2 -11v-3q0 -3 0.5 -6t1.5 -6l1 -2q0 -3 0.5 -6t0.5 -6v-2q0 -3 0.5 -6.5t1.5 -6.5v-1q0 -4 0.5 -7.5t0.5 -6.5v0
q1 -5 1 -14v-1q0 -4 0.5 -7.5t0.5 -6.5v0v-8v-7v0v-7.5v-6.5v-1q0 -4 -0.5 -7.5t-0.5 -6.5v-1q0 -9 -1 -14v0q0 -4 -0.5 -7.5t-0.5 -6.5v-1q-1 -3 -1.5 -6.5t-0.5 -6.5v-2q0 -4 -2 -12v-2q-1 -3 -1.5 -6t-0.5 -6v-3q-1 -3 -3 -11v-2v-1q-2 -8 -2 -11q-1 -1 -1 -3
q-1 -3 -2 -5.5t-1 -5.5q0 -2 -1 -3q-1 -3 -1.5 -5.5t-0.5 -4.5q-1 -1 -1 -4q-1 -3 -2 -5t-1 -4l-1.5 -3t-0.5 -2q-1 -3 -2 -5t-1 -4q0 -1 -0.5 -2.5l-0.5 -1.5q-1 -3 -2 -5t-1 -4q-1 -1 -1.5 -2.5l-0.5 -1.5q6 -41 6 -82q0 -237 -167.5 -404.5t-404.5 -167.5q-90 0 -172 26
q215 67 328 267q-3 0 -11 -2q-2 0 -3 -1q-3 0 -11 -2h-2h-1q-3 -1 -6 -1.5t-6 -0.5l-2 -1q-3 0 -6 -0.5t-6 -0.5h-2q-3 -1 -6.5 -1.5t-6.5 -0.5h-1q-4 0 -7.5 -0.5t-6.5 -0.5v0q-5 -1 -14 -1h-1q-4 0 -7.5 -0.5t-6.5 -0.5v0h-8h-7v0h-7.5h-6.5h-1q-4 0 -7.5 0.5t-6.5 0.5h-1
q-9 0 -14 1v0q-4 0 -7.5 0.5t-6.5 0.5h-1q-3 0 -6.5 0.5t-6.5 1.5h-2q-4 0 -12 2h-2q-3 0 -6 0.5t-6 1.5h-3q-6 2 -11 2q-1 1 -3 1q-8 2 -11 2q-1 1 -3 1q-3 0 -5.5 1t-5.5 2q-2 0 -3 1q-3 0 -5.5 0.5t-4.5 1.5q-1 1 -4 1t-5 1l-4 2q-2 0 -3 0.5t-2 1.5q-3 0 -5 1l-4 2
q-1 0 -2.5 0.5t-2.5 0.5q-2 1 -8 3q-1 0 -2.5 0.5t-1.5 1.5q-41 -6 -82 -6q-237 0 -404.5 167.5t-167.5 404.5q0 89 26 172q67 -216 267 -328v0q0 3 -2 11q0 2 -1 3q0 3 -2 11v1v2q-5 20 -2 11q0 2 -1 3q0 3 -0.5 6t-0.5 6v2q-1 3 -1.5 6.5t-0.5 6.5v1q0 3 -0.5 6.5
t-0.5 7.5v0q-1 5 -1 14v1q0 3 -0.5 6.5t-0.5 7.5v0v7v8v0v7v8zM1024 1278h-3.5h-3.5v0h-3.5h-2.5v0q-4 0 -6 -1v0h-4.5h-2.5v0q-2 0 -3.5 -0.5t-2.5 -0.5v0q-2 0 -3.5 -0.5t-3.5 -0.5v0q-2 0 -3.5 -0.5t-2.5 -0.5v0q-2 0 -3.5 -0.5t-2.5 -0.5v0q-2 0 -3.5 -0.5t-2.5 -0.5v0
q-2 -1 -3.5 -1.5t-2.5 -0.5v0q-3 0 -4.5 -0.5l-1.5 -0.5v0q-4 -2 -7 -2v0q-2 -2 -6 -2v0q-2 -2 -5 -2v0q-4 -2 -6 -2v0q-2 -1 -3.5 -2t-2.5 -1v0q-4 -2 -5 -2v0q-2 -1 -3.5 -2t-2.5 -1v0q-2 -1 -3.5 -2t-2.5 -1v0q-2 -1 -3 -2t-2 -1v0q-4 -2 -5 -3v0q-2 -1 -3.5 -2t-2.5 -1
v0q-2 -1 -3 -2t-2 -1v0q-2 -1 -3 -2t-2 -1v0q-2 -1 -3 -2.5t-2 -1.5v0q-2 -1 -3 -2t-2 -1v0q-3 -3 -5 -4v0q-2 -1 -3 -2.5t-2 -1.5v0l-4 -4v0q-2 -1 -3 -2.5t-2 -1.5v0l-2.5 -2.5l-1.5 -1.5v0q-3 -3 -5 -4v0q-1 -2 -4 -5v0l-2.5 -2.5l-1.5 -1.5v0q-1 -2 -2.5 -3t-1.5 -2v0
l-4 -4v0q-1 -2 -2.5 -3t-1.5 -2v0q-1 -2 -4 -5v0q-1 -2 -2 -3t-1 -2v0q-1 -2 -2.5 -3t-1.5 -2v0q-1 -2 -2 -3t-1 -2v0q-1 -2 -2 -3t-1 -2v0q-1 -2 -2 -3.5t-1 -2.5v0q-1 -1 -3 -5v0q-1 -2 -2 -3t-1 -2v0q-1 -2 -2 -3.5t-1 -2.5v0q-1 -2 -2 -3.5t-1 -2.5v0q0 -1 -2 -5v0
q-1 -2 -2 -3.5t-1 -2.5v0q0 -2 -2 -6v0q0 -3 -2 -5v0q0 -4 -2 -6v0q0 -3 -2 -7v0q0 -1 -0.5 -2.5t-0.5 -3.5v0q-1 -2 -1.5 -3.5t-0.5 -2.5v0q0 -2 -0.5 -3.5t-0.5 -2.5v0q0 -2 -0.5 -3.5t-0.5 -2.5v0q0 -2 -0.5 -3.5t-0.5 -2.5v0q0 -3 -0.5 -4.5t-0.5 -2.5v0q0 -2 -0.5 -3.5
t-0.5 -2.5v0v-3.5v-3.5v0q-1 -2 -1 -6v0v-3.5v-2.5v0v-4.5v-2.5q0 -105 74.5 -179.5t179.5 -74.5h2.5h4.5v0h2.5h3.5v0q4 0 6 1v0h3.5h3.5v0q1 0 2.5 0.5t3.5 0.5v0q1 0 2.5 0.5t4.5 0.5v0q1 0 2.5 0.5t3.5 0.5v0q1 0 2.5 0.5t3.5 0.5v0q1 0 2.5 0.5t3.5 0.5v0q1 0 2.5 0.5
t3.5 1.5v0q2 0 3.5 0.5t2.5 0.5v0q4 2 7 2v0q2 2 6 2v0q2 2 5 2v0q4 2 6 2v0q1 0 2.5 1t3.5 2v0q4 2 5 2v0q1 0 2.5 1t3.5 2v0q1 0 2.5 1t3.5 2v0q1 0 2 1t3 2v0q4 2 5 3v0q1 0 2.5 1t3.5 2v0q1 0 2 1t3 2v0q1 0 2 1t3 2v0q1 0 2 1.5t3 2.5v0q1 0 2 1t3 2v0q3 3 5 4v0
q1 0 2 1.5t3 2.5v0l4 4v0q1 0 2 1.5t3 2.5v0l1.5 1.5l2.5 2.5v0q3 3 5 4v0q1 2 4 5v0l1.5 1.5l2.5 2.5v0q0 1 1.5 2t2.5 3v0l4 4v0q0 1 1.5 2t2.5 3v0q1 2 4 5v0q0 1 1 2t2 3v0q0 1 1.5 2t2.5 3v0q0 1 1 2t2 3v0q0 1 1 2t2 3v0q0 1 1 2.5t2 3.5v0q1 1 3 5v0q0 1 1 2t2 3v0
q0 1 1 2.5t2 3.5v0q0 1 1 2.5t2 3.5v0q0 1 2 5v0q0 1 1 2.5t2 3.5v0q0 2 2 6v0q0 3 2 5v0q0 4 2 6v0q0 3 2 7v0q0 1 0.5 2t0.5 4v0q0 1 0.5 2.5t1.5 3.5v0q0 1 0.5 2.5t0.5 3.5v0q0 1 0.5 2.5t0.5 3.5v0q0 1 0.5 2.5t0.5 3.5v0q0 2 0.5 3.5t0.5 3.5v0q0 1 0.5 2.5t0.5 3.5v0
v2.5v4.5v0q1 2 1 6v0v2.5v3.5v0v3.5v3.5q0 105 -74.5 179.5t-179.5 74.5z" />
    <glyph glyph-name="uniEDE7" unicode="&#xede7;" horiz-adv-x="1925" 
d="M661 510q53 -58 53 -137q0 -84 -59 -143t-143 -59t-143 59t-59 143q0 79 53 137v1299q0 37 85 60v-1412q-48 -34 -48 -92q0 -113 112 -113q113 0 113 113q0 58 -49 92v1412q85 -23 85 -60v-1299zM547 787v-370q27 -19 27 -51q0 -63 -62 -63t-62 63q0 32 28 51v370h69z
M1014 1234l213 -123v246l-177 179h100l127 -129l127 129h100l-177 -179v-246l213 123l67 242l50 -86l-48 -175l175 -45l50 -87l-244 64l-213 -123l213 -123l244 64l-50 -87l-175 -45l48 -175l-50 -86l-67 242l-213 123v-246l177 -179h-100l-127 129l-127 -129h-100l177 179
v246l-213 -123l-67 -242l-50 86l48 175l-175 45l-50 87l244 -64l212 123l-212 123l-244 -64l50 87l175 45l-48 175l50 86z" />
    <glyph glyph-name="uniEDE8" unicode="&#xede8;" horiz-adv-x="1806" 
d="M661 510q53 -58 53 -137q0 -84 -59 -143t-143 -59t-143 59t-59 143q0 79 53 137v1299q0 37 85 60v-1412q-48 -34 -48 -92q0 -113 112 -113q113 0 113 113q0 58 -49 92v1412q85 -23 85 -60v-1299zM1277 512l-88 152q-105 25 -180 104h-175l87 152q-15 49 -15 104
q0 54 15 104l-87 152h175q75 78 180 104l88 152l87 -152q105 -26 181 -104h175l-87 -152q15 -55 15 -104t-15 -104l87 -152h-175q-76 -79 -181 -104zM547 1869v-1452q27 -19 27 -51q0 -63 -62 -63t-62 63q0 32 28 51v1452h69z" />
    <glyph glyph-name="uniEDE9" unicode="&#xede9;" 
d="M1569 819q-122 -4 -242.5 20.5t-240.5 54.5q-209 52 -417 70t-410 -134l-88 -65v109v105v27l22 16q234 176 463 158t457 -75q38 -10 76 -19.5t77 -17.5q-6 28 -6 60q0 127 90 217.5t219 90.5q127 0 217.5 -90.5t90.5 -217.5v-2v-1v0v0q0 -38 -9 -72v0q0 -2 -0.5 -3.5
t-0.5 -2.5l-1 -1q0 -2 -2 -6v-1q0 -2 -2 -6v0q0 -3 -2 -7v0q-13 -35 -30 -62v0q-2 -4 -4 -6v0q-1 -2 -2 -3.5t-1 -2.5h-1q-2 -4 -4 -5v-1q-1 -1 -2 -2.5t-2 -2.5v0q-22 -29 -53 -54v0q-1 -2 -5 -4v-1q-2 -1 -3.5 -2t-2.5 -1v-1q-1 -1 -2.5 -2t-2.5 -2v0q-37 -25 -81 -40v0
q-50 -15 -95 -15v0zM1392 219q-106 -4 -211 17t-210 48q-183 45 -364.5 61t-358.5 -117l-77 -57v96v91v24l19 14q204 153 404.5 137.5t399.5 -65.5q78 -20 133 -32q-5 28 -5 52q0 111 79 190.5t191 79.5q111 0 190 -79.5t79 -190.5v-1.5v-0.5v0v0q0 -29 -7 -62v-1
q-1 -2 -1.5 -3.5t-0.5 -2.5v0q-1 -2 -1.5 -3.5t-0.5 -2.5v0q0 -3 -2 -5v-1q0 -2 -0.5 -3.5l-0.5 -1.5h-1q-9 -28 -26 -55v0q-2 -4 -3 -5v0q-2 -4 -3 -5l-1 -1q-1 -1 -2 -2.5l-1 -1.5v0q-2 -4 -4 -5v0q-21 -29 -46 -47v0l-4 -4h-1l-4 -4v0q-4 -2 -5 -3v0q-36 -24 -71 -35v0
q-38 -13 -83 -13v0zM1208 1399q-90 -4 -179.5 14t-178.5 41q-156 39 -310 52.5t-304 -99.5l-65 -49v82v77v20l16 12q174 130 344 116.5t339 -55.5l56 -14t57 -13q-4 20 -4 45q0 94 66.5 161.5t162.5 67.5q94 0 161 -67.5t67 -161.5v-1.5v-0.5v0v-1q0 -28 -6 -53v0
q-1 -1 -1.5 -2.5l-0.5 -1.5v-1q0 -2 -0.5 -3t-0.5 -2v0l-1.5 -3t-0.5 -2v0q0 -2 -0.5 -3t-0.5 -2v0q-10 -25 -23 -46v0q0 -2 -2 -4v-1q-2 -2 -3 -4v0q-1 -1 -2 -2.5l-1 -1.5v0q-1 -1 -2 -2.5l-1 -1.5v0q-21 -26 -39 -40h-1l-2 -2l-1 -1l-1 -1l-4 -2v-1l-4 -2v0
q-27 -20 -60 -30v0q-31 -11 -70 -11v0z" />
    <glyph glyph-name="uniEDEA" unicode="&#xedea;" 
d="M652 895q-56 -19 -122 -19q-149 0 -254 93t-105 225q0 111 76 196t192 112q11 156 141.5 265.5t311.5 109.5q130 0 237 -59.5t164 -155.5q64 17 131 17q187 0 320 -118t133 -284q0 -167 -133 -284t-320 -117q-68 0 -119 14q-137 -87 -323 -87q-193 0 -330 92zM378 512
l134 206l134 -206l-134 -206zM1402 512l134 206l134 -206l-134 -206zM890 512l134 206l134 -206l-134 -206z" />
    <glyph glyph-name="uniEE16" unicode="&#xee16;" horiz-adv-x="1789" 
d="M1124 1526q61 -13 114 -37l107 146l161 -117l-106 -147q40 -44 71 -97l171 56l62 -190l-172 -56q4 -27 4 -60q0 -34 -4 -60l172 -56l-62 -190l-171 56q-31 -54 -71 -97l106 -147l-161 -117l-107 146q-53 -25 -114 -37v-181h-200v181q-62 12 -114 37l-107 -146l-161 117
l106 147q-41 43 -71 97l-171 -56l-62 190l172 56q-4 26 -4 60q0 33 4 60l-172 56l62 190l171 -56q30 53 71 97l-106 147l161 117l107 -146q52 24 114 37v181h200v-181zM1024 1302q-115 0 -196.5 -82t-81.5 -196q0 -115 81.5 -196.5t196.5 -81.5q114 0 196 81.5t82 196.5
q0 114 -82 196t-196 82z" />
    <glyph glyph-name="uniEE17" unicode="&#xee17;" horiz-adv-x="1851" 
d="M1024 171l-146 252q-178 43 -301 174h-292l146 253q-25 85 -25 174q0 88 25 174l-146 253h292q123 130 301 174l146 252l146 -252q177 -44 301 -174h292l-146 -253q25 -86 25 -174q0 -89 -25 -174l146 -253h-292q-124 -131 -301 -174z" />
    <glyph glyph-name="uniF1FF" unicode="&#xf1ff;" horiz-adv-x="1344" 
d="M1024 1877q129 0 256 -39q-260 -82 -428.5 -305t-168.5 -509q0 -287 168.5 -510t428.5 -304q-127 -39 -256 -39q-354 0 -603.5 249.5t-249.5 603.5q0 353 249.5 603t603.5 250z" />
    <glyph glyph-name="uniEE18" unicode="&#xee18;" horiz-adv-x="1441" 
d="M1065 819q-122 -4 -242 20.5t-240 54.5q-104 26 -207 47.5t-205 23.5v215q110 -2 219 -25t219 -50q38 -10 76 -19.5t77 -17.5q-6 28 -6 60q0 127 90 217.5t219 90.5q127 0 217.5 -90.5t90.5 -217.5v-2v-1v0v0q0 -38 -9 -72v0q0 -2 -0.5 -3.5t-0.5 -2.5l-1 -1q0 -2 -2 -6
v-1q0 -2 -2 -6v0q0 -3 -2 -7v0q-13 -35 -30 -62v0q-2 -4 -4 -6v0q-1 -2 -2 -3.5t-1 -2.5h-1q-2 -4 -4 -5v-1q-1 -1 -2 -2.5t-2 -2.5v0q-22 -29 -53 -54v0q-1 -2 -5 -4v-1q-2 -1 -3.5 -2t-2.5 -1v-1q-1 -1 -2.5 -2t-2.5 -2v0q-37 -25 -81 -40v0q-50 -15 -95 -15v0z" />
    <glyph glyph-name="uniEE19" unicode="&#xee19;" horiz-adv-x="1214" 
d="M888 219q-106 -4 -211 17t-210 48q-75 18 -149 34.5t-147 23.5v188q80 -7 159.5 -24.5t159.5 -37.5q33 -9 66.5 -17t66.5 -15q-5 28 -5 52q0 111 79 190.5t191 79.5q111 0 190 -79.5t79 -190.5v-1.5v-0.5v0v0q0 -29 -7 -62v-1q-1 -2 -1.5 -3.5t-0.5 -2.5v0
q-1 -2 -1.5 -3.5t-0.5 -2.5v0q0 -3 -2 -5v-1q0 -2 -0.5 -3.5l-0.5 -1.5h-1q-9 -28 -26 -55v0q-2 -4 -3 -5v0q-2 -4 -3 -5l-1 -1q-1 -1 -2 -2.5l-1 -1.5v0q-2 -4 -4 -5v0q-21 -29 -46 -47v0l-4 -4h-1l-4 -4v0q-4 -2 -5 -3v0q-33 -24 -71 -35v0q-38 -13 -83 -13v0zM704 1399
q-90 -4 -179.5 14t-178.5 41q-103 26 -175 39v161q48 -9 97 -20.5t98 -23.5l56 -14t57 -13q-4 20 -4 45q0 94 66.5 161.5t162.5 67.5q94 0 161.5 -67.5t67.5 -161.5v-1.5v-0.5v0v-1q-2 -31 -7 -53v0q-1 -1 -1 -4v-1l-1.5 -3t-0.5 -2v0q0 -2 -0.5 -3t-0.5 -2v0l-1.5 -3
t-0.5 -2v0q-11 -29 -22 -46v0q-1 -2 -3 -4v-1q-2 -2 -3 -4v0q-1 -1 -2 -2.5l-1 -1.5v0q-1 -1 -2 -2.5l-1 -1.5v0q-21 -26 -39 -40v0q-2 -1 -4 -3v-1l-4 -2v-1q-2 0 -4 -2h-1q-27 -20 -59 -30v0q-32 -11 -71 -11v0z" />
    <glyph glyph-name="uniEE1A" unicode="&#xee1a;" horiz-adv-x="1441" 
d="M1065 819q-122 -4 -242 20.5t-240 54.5q-104 26 -207 47.5t-205 23.5v215q110 -2 219 -25t219 -50q38 -10 76 -19.5t77 -17.5q-6 28 -6 60q0 127 90 217.5t219 90.5q127 0 217.5 -90.5t90.5 -217.5v-2v-1v0v0q0 -38 -9 -72v0q0 -2 -0.5 -3.5t-0.5 -2.5l-1 -1q0 -2 -2 -6
v-1q0 -2 -2 -6v0q0 -3 -2 -7v0q-13 -35 -30 -62v0q-2 -4 -4 -6v0q-1 -2 -2 -3.5t-1 -2.5h-1q-2 -4 -4 -5v-1q-1 -1 -2 -2.5t-2 -2.5v0q-22 -29 -53 -54v0q-1 -2 -5 -4v-1q-2 -1 -3.5 -2t-2.5 -1v-1q-1 -1 -2.5 -2t-2.5 -2v0q-37 -25 -81 -40v0q-50 -15 -95 -15v0zM888 219
q-106 -4 -211 17t-210 48q-75 18 -149 34.5t-147 23.5v188q80 -7 159.5 -24.5t159.5 -37.5q33 -9 66.5 -17t66.5 -15q-5 28 -5 52q0 111 79 190.5t191 79.5q111 0 190 -79.5t79 -190.5v-1.5v-0.5v0v0q0 -29 -7 -62v-1q-1 -2 -1.5 -3.5t-0.5 -2.5v0q-1 -2 -1.5 -3.5
t-0.5 -2.5v0q0 -3 -2 -5v-1q0 -2 -0.5 -3.5l-0.5 -1.5h-1q-9 -28 -26 -55v0q-2 -4 -3 -5v0q-2 -4 -3 -5l-1 -1q-1 -1 -2 -2.5l-1 -1.5v0q-2 -4 -4 -5v0q-21 -29 -46 -47v0l-4 -4h-1l-4 -4v0q-4 -2 -5 -3v0q-33 -24 -71 -35v0q-38 -13 -83 -13v0z" />
    <glyph glyph-name="uniEE1B" unicode="&#xee1b;" horiz-adv-x="1441" 
d="M1065 819q-122 -4 -242 20.5t-240 54.5q-104 26 -207 47.5t-205 23.5v215q110 -2 219 -25t219 -50q38 -10 76 -19.5t77 -17.5q-6 28 -6 60q0 127 90 217.5t219 90.5q127 0 217.5 -90.5t90.5 -217.5v-2v-1v0v0q0 -38 -9 -72v0q0 -2 -0.5 -3.5t-0.5 -2.5l-1 -1q0 -2 -2 -6
v-1q0 -2 -2 -6v0q0 -3 -2 -7v0q-13 -35 -30 -62v0q-2 -4 -4 -6v0q-1 -2 -2 -3.5t-1 -2.5h-1q-2 -4 -4 -5v-1q-1 -1 -2 -2.5t-2 -2.5v0q-22 -29 -53 -54v0q-1 -2 -5 -4v-1q-2 -1 -3.5 -2t-2.5 -1v-1q-1 -1 -2.5 -2t-2.5 -2v0q-37 -25 -81 -40v0q-50 -15 -95 -15v0zM888 219
q-106 -4 -211 17t-210 48q-75 18 -149 34.5t-147 23.5v188q80 -7 159.5 -24.5t159.5 -37.5q33 -9 66.5 -17t66.5 -15q-5 28 -5 52q0 111 79 190.5t191 79.5q111 0 190 -79.5t79 -190.5v-1.5v-0.5v0v0q0 -29 -7 -62v-1q-1 -2 -1.5 -3.5t-0.5 -2.5v0q-1 -2 -1.5 -3.5
t-0.5 -2.5v0q0 -3 -2 -5v-1q0 -2 -0.5 -3.5l-0.5 -1.5h-1q-9 -28 -26 -55v0q-2 -4 -3 -5v0q-2 -4 -3 -5l-1 -1q-1 -1 -2 -2.5l-1 -1.5v0q-2 -4 -4 -5v0q-21 -29 -46 -47v0l-4 -4h-1l-4 -4v0q-4 -2 -5 -3v0q-33 -24 -71 -35v0q-38 -13 -83 -13v0zM704 1399q-90 -4 -179.5 14
t-178.5 41q-103 26 -175 39v161q48 -9 97 -20.5t98 -23.5l56 -14t57 -13q-4 20 -4 45q0 94 66.5 161.5t162.5 67.5q94 0 161.5 -67.5t67.5 -161.5v-1.5v-0.5v0v-1q-2 -31 -7 -53v0q-1 -1 -1 -4v-1l-1.5 -3t-0.5 -2v0q0 -2 -0.5 -3t-0.5 -2v0l-1.5 -3t-0.5 -2v0
q-11 -29 -22 -46v0q-1 -2 -3 -4v-1q-2 -2 -3 -4v0q-1 -1 -2 -2.5l-1 -1.5v0q-1 -1 -2 -2.5l-1 -1.5v0q-21 -26 -39 -40v0q-2 -1 -4 -3v-1l-4 -2v-1q-2 0 -4 -2h-1q-27 -20 -59 -30v0q-32 -11 -71 -11v0z" />
    <glyph glyph-name="uniEE1C" unicode="&#xee1c;" 
d="M1065 819q-122 -4 -242 20.5t-240 54.5q-104 26 -207 47.5t-205 23.5v215q110 -2 219 -25t219 -50q38 -10 76 -19.5t77 -17.5q-6 28 -6 60q0 127 90 217.5t219 90.5q127 0 217.5 -90.5t90.5 -217.5v-2v-1v0v0q0 -38 -9 -72v0q0 -2 -0.5 -3.5t-0.5 -2.5l-1 -1q0 -2 -2 -6
v-1q0 -2 -2 -6v0q0 -3 -2 -7v0q-13 -35 -30 -62v0q-2 -4 -4 -6v0q-1 -2 -2 -3.5t-1 -2.5h-1q-2 -4 -4 -5v-1q-1 -1 -2 -2.5t-2 -2.5v0q-22 -29 -53 -54v0q-1 -2 -5 -4v-1q-2 -1 -3.5 -2t-2.5 -1v-1q-1 -1 -2.5 -2t-2.5 -2v0q-37 -25 -81 -40v0q-50 -15 -95 -15v0zM1607 343
q-100 -4 -199.5 15t-198.5 45q11 42 11 85q0 55 -17 106l7 -2q78 -20 133 -32q-5 28 -5 53q0 111 79 190t191 79q111 0 190 -79t79 -190v-2v-1v0v0q0 -30 -8 -62v-1q0 -1 -0.5 -2.5t-0.5 -2.5v-1l-1.5 -3t-0.5 -2v-1q0 -1 -2 -5v-1q0 -1 -2 -5v0q-12 -33 -26 -55v0
q-1 -2 -2 -3t-1 -2v0q-1 -2 -4 -5v0q-1 -2 -2 -3t-1 -2v0q-1 -2 -2.5 -3t-1.5 -2v0q-19 -25 -46 -47v0q-3 -2 -4 -4h-1q-1 -1 -2.5 -2l-1.5 -1h-1l-4 -4h-1q-32 -23 -70 -35v0q-38 -13 -83 -13h-1zM888 219q-106 -4 -211 17t-210 48q-75 18 -149 34.5t-147 23.5v188
q80 -7 159.5 -24.5t159.5 -37.5q33 -9 66.5 -17t66.5 -15q-5 28 -5 52q0 111 79 190.5t191 79.5q111 0 190 -79.5t79 -190.5v-1.5v-0.5v0v0q0 -29 -7 -62v-1q-1 -2 -1.5 -3.5t-0.5 -2.5v0q-1 -2 -1.5 -3.5t-0.5 -2.5v0q0 -3 -2 -5v-1q0 -2 -0.5 -3.5l-0.5 -1.5h-1
q-9 -28 -26 -55v0q-2 -4 -3 -5v0q-2 -4 -3 -5l-1 -1q-1 -1 -2 -2.5l-1 -1.5v0q-2 -4 -4 -5v0q-21 -29 -46 -47v0l-4 -4h-1l-4 -4v0q-4 -2 -5 -3v0q-33 -24 -71 -35v0q-38 -13 -83 -13v0zM704 1399q-90 -4 -179.5 14t-178.5 41q-103 26 -175 39v161q48 -9 97 -20.5t98 -23.5
l56 -14t57 -13q-4 20 -4 45q0 94 66.5 161.5t162.5 67.5q94 0 161.5 -67.5t67.5 -161.5v-1.5v-0.5v0v-1q-2 -31 -7 -53v0q-1 -1 -1 -4v-1l-1.5 -3t-0.5 -2v0q0 -2 -0.5 -3t-0.5 -2v0l-1.5 -3t-0.5 -2v0q-11 -29 -22 -46v0q-1 -2 -3 -4v-1q-2 -2 -3 -4v0q-1 -1 -2 -2.5
l-1 -1.5v0q-1 -1 -2 -2.5l-1 -1.5v0q-21 -26 -39 -40v0q-2 -1 -4 -3v-1l-4 -2v-1q-2 0 -4 -2h-1q-27 -20 -59 -30v0q-32 -11 -71 -11v0z" />
    <glyph glyph-name="uniEE1D" unicode="&#xee1d;" horiz-adv-x="1976" 
d="M1065 819q-122 -4 -242 20.5t-240 54.5q-104 26 -207 47.5t-205 23.5v215q110 -2 219 -25t219 -50q38 -10 76 -19.5t77 -17.5q-6 28 -6 60q0 127 90 217.5t219 90.5q127 0 217.5 -90.5t90.5 -217.5v-2v-1v0v0q0 -38 -9 -72v0q0 -2 -0.5 -3.5t-0.5 -2.5l-1 -1q0 -2 -2 -6
v-1q0 -2 -2 -6v0q0 -3 -2 -7v0q-13 -35 -30 -62v0q-2 -4 -4 -6v0q-1 -2 -2 -3.5t-1 -2.5h-1q-2 -4 -4 -5v-1q-1 -1 -2 -2.5t-2 -2.5v0q-22 -29 -53 -54v0q-1 -2 -5 -4v-1q-2 -1 -3.5 -2t-2.5 -1v-1q-1 -1 -2.5 -2t-2.5 -2v0q-37 -25 -81 -40v0q-50 -15 -95 -15v0zM1607 343
q-100 -4 -199.5 15t-198.5 45q11 42 11 85q0 55 -17 106l7 -2q78 -20 133 -32q-5 28 -5 53q0 111 79 190t191 79q111 0 190 -79t79 -190v-2v-1v0v0q0 -30 -8 -62v-1q0 -1 -0.5 -2.5t-0.5 -2.5v-1l-1.5 -3t-0.5 -2v-1q0 -1 -2 -5v-1q0 -1 -2 -5v0q-12 -33 -26 -55v0
q-1 -2 -2 -3t-1 -2v0q-1 -2 -4 -5v0q-1 -2 -2 -3t-1 -2v0q-1 -2 -2.5 -3t-1.5 -2v0q-19 -25 -46 -47v0q-3 -2 -4 -4h-1q-1 -1 -2.5 -2l-1.5 -1h-1l-4 -4h-1q-32 -23 -70 -35v0q-38 -13 -83 -13h-1zM1653 1468q-90 -3 -179.5 15t-178.5 41q-77 18 -153.5 34.5t-151.5 17.5
q5 28 5 52q0 57 -21 108q85 0 170.5 -17.5t170.5 -38.5l56 -14t57 -13q-4 18 -4 44q0 95 66.5 162t162.5 67q94 0 161.5 -67t67.5 -162v-1v-1v0v0q0 -24 -7 -53v0q0 -2 -0.5 -3t-0.5 -2v0l-1.5 -3t-0.5 -2v0q0 -2 -0.5 -3t-0.5 -2v0q-3 -6 -2 -5v0q-10 -27 -22 -46v-1
q-2 -2 -3 -4v0q-1 -1 -2 -2.5l-1 -1.5v0q-1 -2 -3 -4v0q-1 -2 -3 -4v0q-19 -25 -39 -40v-1q-1 -1 -2.5 -2l-1.5 -1v0q-1 -1 -2.5 -2l-1.5 -1v0q-2 -1 -4 -3v0q-29 -20 -60 -30v0q-37 -11 -71 -11v0zM888 219q-106 -4 -211 17t-210 48q-75 18 -149 34.5t-147 23.5v188
q80 -7 159.5 -24.5t159.5 -37.5q33 -9 66.5 -17t66.5 -15q-5 28 -5 52q0 111 79 190.5t191 79.5q111 0 190 -79.5t79 -190.5v-1.5v-0.5v0v0q0 -29 -7 -62v-1q-1 -2 -1.5 -3.5t-0.5 -2.5v0q-1 -2 -1.5 -3.5t-0.5 -2.5v0q0 -3 -2 -5v-1q0 -2 -0.5 -3.5l-0.5 -1.5h-1
q-9 -28 -26 -55v0q-2 -4 -3 -5v0q-2 -4 -3 -5l-1 -1q-1 -1 -2 -2.5l-1 -1.5v0q-2 -4 -4 -5v0q-21 -29 -46 -47v0l-4 -4h-1l-4 -4v0q-4 -2 -5 -3v0q-33 -24 -71 -35v0q-38 -13 -83 -13v0zM704 1399q-90 -4 -179.5 14t-178.5 41q-103 26 -175 39v161q48 -9 97 -20.5t98 -23.5
l56 -14t57 -13q-4 20 -4 45q0 94 66.5 161.5t162.5 67.5q94 0 161.5 -67.5t67.5 -161.5v-1.5v-0.5v0v-1q-2 -31 -7 -53v0q-1 -1 -1 -4v-1l-1.5 -3t-0.5 -2v0q0 -2 -0.5 -3t-0.5 -2v0l-1.5 -3t-0.5 -2v0q-11 -29 -22 -46v0q-1 -2 -3 -4v-1q-2 -2 -3 -4v0q-1 -1 -2 -2.5
l-1 -1.5v0q-1 -1 -2 -2.5l-1 -1.5v0q-21 -26 -39 -40v0q-2 -1 -4 -3v-1l-4 -2v-1q-2 0 -4 -2h-1q-27 -20 -59 -30v0q-32 -11 -71 -11v0z" />
    <glyph glyph-name="uniEE1E" unicode="&#xee1e;" horiz-adv-x="1969" 
d="M1065 819q-122 -4 -242 20.5t-240 54.5q-104 26 -207 47.5t-205 23.5v215q110 -2 219 -25t219 -50q38 -10 76 -19.5t77 -17.5q-6 28 -6 60q0 127 90 217.5t219 90.5q127 0 217.5 -90.5t90.5 -217.5v-2v-1v0v0q0 -38 -9 -72v0q0 -2 -0.5 -3.5t-0.5 -2.5l-1 -1q0 -2 -2 -6
v-1q0 -2 -2 -6v0q0 -3 -2 -7v0q-13 -35 -30 -62v0q-2 -4 -4 -6v0q-1 -2 -2 -3.5t-1 -2.5h-1q-2 -4 -4 -5v-1q-1 -1 -2 -2.5t-2 -2.5v0q-22 -29 -53 -54v0q-1 -2 -5 -4v-1q-2 -1 -3.5 -2t-2.5 -1v-1q-1 -1 -2.5 -2t-2.5 -2v0q-37 -25 -81 -40v0q-50 -15 -95 -15v0zM1876 338
v-101l-80 61q-144 108 -291.5 118t-294.5 -20q13 48 13 92q0 56 -18 106q161 31 323.5 17t327.5 -137l20 -16v-25v-95zM888 219q-106 -4 -211 17t-210 48q-75 18 -149 34.5t-147 23.5v188q80 -7 159.5 -24.5t159.5 -37.5q33 -9 66.5 -17t66.5 -15q-5 28 -5 52
q0 111 79 190.5t191 79.5q111 0 190 -79.5t79 -190.5v-1.5v-0.5v0v0q0 -29 -7 -62v-1q-1 -2 -1.5 -3.5t-0.5 -2.5v0q-1 -2 -1.5 -3.5t-0.5 -2.5v0q0 -3 -2 -5v-1q0 -2 -0.5 -3.5l-0.5 -1.5h-1q-9 -28 -26 -55v0q-2 -4 -3 -5v0q-2 -4 -3 -5l-1 -1q-1 -1 -2 -2.5l-1 -1.5v0
q-2 -4 -4 -5v0q-21 -29 -46 -47v0l-4 -4h-1l-4 -4v0q-4 -2 -5 -3v0q-33 -24 -71 -35v0q-38 -13 -83 -13v0zM704 1399q-90 -4 -179.5 14t-178.5 41q-103 26 -175 39v161q48 -9 97 -20.5t98 -23.5l56 -14t57 -13q-4 20 -4 45q0 94 66.5 161.5t162.5 67.5q94 0 161.5 -67.5
t67.5 -161.5v-1.5v-0.5v0v-1q-2 -31 -7 -53v0q-1 -1 -1 -4v-1l-1.5 -3t-0.5 -2v0q0 -2 -0.5 -3t-0.5 -2v0l-1.5 -3t-0.5 -2v0q-11 -29 -22 -46v0q-1 -2 -3 -4v-1q-2 -2 -3 -4v0q-1 -1 -2 -2.5l-1 -1.5v0q-1 -1 -2 -2.5l-1 -1.5v0q-21 -26 -39 -40v0q-2 -1 -4 -3v-1l-4 -2v-1
q-2 0 -4 -2h-1q-27 -20 -59 -30v0q-32 -11 -71 -11v0z" />
    <glyph glyph-name="uniE000" unicode="&#xe000;" 
d="M1065 819q-122 -4 -242 20.5t-240 54.5q-104 26 -207 47.5t-205 23.5v215q110 -2 219 -25t219 -50q38 -10 76 -19.5t77 -17.5q-6 28 -6 60q0 127 90 217.5t219 90.5q127 0 217.5 -90.5t90.5 -217.5v-2v-1v0v0q0 -38 -9 -72v0q0 -2 -0.5 -3.5t-0.5 -2.5l-1 -1q0 -2 -2 -6
v-1q0 -2 -2 -6v0q0 -3 -2 -7v0q-13 -35 -30 -62v0q-2 -4 -4 -6v0q-1 -2 -2 -3.5t-1 -2.5h-1q-2 -4 -4 -5v-1q-1 -1 -2 -2.5t-2 -2.5v0q-22 -29 -53 -54v0q-1 -2 -5 -4v-1q-2 -1 -3.5 -2t-2.5 -1v-1q-1 -1 -2.5 -2t-2.5 -2v0q-37 -25 -81 -40v0q-50 -15 -95 -15v0zM1877 909
v-100l-81 60q-93 69 -187 96t-189 27q25 65 25 136q0 27 -5 62q102 -2 206.5 -34t210.5 -111l20 -15v-25v-96zM1876 338v-101l-80 61q-144 108 -291.5 118t-294.5 -20q13 48 13 92q0 56 -18 106q161 31 323.5 17t327.5 -137l20 -16v-25v-95zM888 219q-106 -4 -211 17
t-210 48q-75 18 -149 34.5t-147 23.5v188q80 -7 159.5 -24.5t159.5 -37.5q33 -9 66.5 -17t66.5 -15q-5 28 -5 52q0 111 79 190.5t191 79.5q111 0 190 -79.5t79 -190.5v-1.5v-0.5v0v0q0 -29 -7 -62v-1q-1 -2 -1.5 -3.5t-0.5 -2.5v0q-1 -2 -1.5 -3.5t-0.5 -2.5v0q0 -3 -2 -5
v-1q0 -2 -0.5 -3.5l-0.5 -1.5h-1q-9 -28 -26 -55v0q-2 -4 -3 -5v0q-2 -4 -3 -5l-1 -1q-1 -1 -2 -2.5l-1 -1.5v0q-2 -4 -4 -5v0q-21 -29 -46 -47v0l-4 -4h-1l-4 -4v0q-4 -2 -5 -3v0q-33 -24 -71 -35v0q-38 -13 -83 -13v0zM704 1399q-90 -4 -179.5 14t-178.5 41
q-103 26 -175 39v161q48 -9 97 -20.5t98 -23.5l56 -14t57 -13q-4 20 -4 45q0 94 66.5 161.5t162.5 67.5q94 0 161.5 -67.5t67.5 -161.5v-1.5v-0.5v0v-1q-2 -31 -7 -53v0q-1 -1 -1 -4v-1l-1.5 -3t-0.5 -2v0q0 -2 -0.5 -3t-0.5 -2v0l-1.5 -3t-0.5 -2v0q-11 -29 -22 -46v0
q-1 -2 -3 -4v-1q-2 -2 -3 -4v0q-1 -1 -2 -2.5l-1 -1.5v0q-1 -1 -2 -2.5l-1 -1.5v0q-21 -26 -39 -40v0q-2 -1 -4 -3v-1l-4 -2v-1q-2 0 -4 -2h-1q-27 -20 -59 -30v0q-32 -11 -71 -11v0z" />
    <glyph glyph-name="uniEE1F" unicode="&#xee1f;" 
d="M1065 819q-122 -4 -242 20.5t-240 54.5q-104 26 -207 47.5t-205 23.5v215q110 -2 219 -25t219 -50q38 -10 76 -19.5t77 -17.5q-6 28 -6 60q0 127 90 217.5t219 90.5q127 0 217.5 -90.5t90.5 -217.5v-2v-1v0v0q0 -38 -9 -72v0q0 -2 -0.5 -3.5t-0.5 -2.5l-1 -1q0 -2 -2 -6
v-1q0 -2 -2 -6v0q0 -3 -2 -7v0q-13 -35 -30 -62v0q-2 -4 -4 -6v0q-1 -2 -2 -3.5t-1 -2.5h-1q-2 -4 -4 -5v-1q-1 -1 -2 -2.5t-2 -2.5v0q-22 -29 -53 -54v0q-1 -2 -5 -4v-1q-2 -1 -3.5 -2t-2.5 -1v-1q-1 -1 -2.5 -2t-2.5 -2v0q-37 -25 -81 -40v0q-50 -15 -95 -15v0zM1877 909
v-100l-81 60q-93 69 -187 96t-189 27q25 65 25 136q0 27 -5 62q102 -2 206.5 -34t210.5 -111l20 -15v-25v-96zM1876 338v-101l-80 61q-144 108 -291.5 118t-294.5 -20q13 48 13 92q0 56 -18 106q161 31 323.5 17t327.5 -137l20 -16v-25v-95zM888 219q-106 -4 -211 17
t-210 48q-75 18 -149 34.5t-147 23.5v188q80 -7 159.5 -24.5t159.5 -37.5q33 -9 66.5 -17t66.5 -15q-5 28 -5 52q0 111 79 190.5t191 79.5q111 0 190 -79.5t79 -190.5v-1.5v-0.5v0v0q0 -29 -7 -62v-1q-1 -2 -1.5 -3.5t-0.5 -2.5v0q-1 -2 -1.5 -3.5t-0.5 -2.5v0q0 -3 -2 -5
v-1q0 -2 -0.5 -3.5l-0.5 -1.5h-1q-9 -28 -26 -55v0q-2 -4 -3 -5v0q-2 -4 -3 -5l-1 -1q-1 -1 -2 -2.5l-1 -1.5v0q-2 -4 -4 -5v0q-21 -29 -46 -47v0l-4 -4h-1l-4 -4v0q-4 -2 -5 -3v0q-33 -24 -71 -35v0q-38 -13 -83 -13v0zM704 1399q-90 -4 -179.5 14t-178.5 41
q-103 26 -175 39v161q48 -9 97 -20.5t98 -23.5l56 -14t57 -13q-4 20 -4 45q0 94 66.5 161.5t162.5 67.5q94 0 161.5 -67.5t67.5 -161.5v-1.5v-0.5v0v-1q-2 -31 -7 -53v0q-1 -1 -1 -4v-1l-1.5 -3t-0.5 -2v0q0 -2 -0.5 -3t-0.5 -2v0l-1.5 -3t-0.5 -2v0q-11 -29 -22 -46v0
q-1 -2 -3 -4v-1q-2 -2 -3 -4v0q-1 -1 -2 -2.5l-1 -1.5v0q-1 -1 -2 -2.5l-1 -1.5v0q-21 -26 -39 -40v0q-2 -1 -4 -3v-1l-4 -2v-1q-2 0 -4 -2h-1q-27 -20 -59 -30v0q-32 -11 -71 -11v0z" />
    <glyph glyph-name="uniEE20" unicode="&#xee20;" 
d="M1065 819q-122 -4 -242 20.5t-240 54.5q-104 26 -207 47.5t-205 23.5v215q110 -2 219 -25t219 -50q38 -10 76 -19.5t77 -17.5q-6 28 -6 60q0 127 90 217.5t219 90.5q127 0 217.5 -90.5t90.5 -217.5v-2v-1v0v0q0 -38 -9 -72v0q0 -2 -0.5 -3.5t-0.5 -2.5l-1 -1q0 -2 -2 -6
v-1q0 -2 -2 -6v0q0 -3 -2 -7v0q-13 -35 -30 -62v0q-2 -4 -4 -6v0q-1 -2 -2 -3.5t-1 -2.5h-1q-2 -4 -4 -5v-1q-1 -1 -2 -2.5t-2 -2.5v0q-22 -29 -53 -54v0q-1 -2 -5 -4v-1q-2 -1 -3.5 -2t-2.5 -1v-1q-1 -1 -2.5 -2t-2.5 -2v0q-37 -25 -81 -40v0q-50 -15 -95 -15v0zM1876 1527
v-101l-80 60q-187 140 -377.5 123.5t-382.5 -64.5q-15 -4 -29 -8t-28 -7q16 45 16 98q0 54 -18 102q9 1 35 8q208 52 418 69t426 -144l20 -16v-25v-95zM1877 909v-100l-81 60q-93 69 -187 96t-189 27q25 65 25 136q0 27 -5 62q102 -2 206.5 -34t210.5 -111l20 -15v-25v-96z
M1876 338v-101l-80 61q-144 108 -291.5 118t-294.5 -20q13 48 13 92q0 56 -18 106q161 31 323.5 17t327.5 -137l20 -16v-25v-95zM888 219q-106 -4 -211 17t-210 48q-75 18 -149 34.5t-147 23.5v188q80 -7 159.5 -24.5t159.5 -37.5q33 -9 66.5 -17t66.5 -15q-5 28 -5 52
q0 111 79 190.5t191 79.5q111 0 190 -79.5t79 -190.5v-1.5v-0.5v0v0q0 -29 -7 -62v-1q-1 -2 -1.5 -3.5t-0.5 -2.5v0q-1 -2 -1.5 -3.5t-0.5 -2.5v0q0 -3 -2 -5v-1q0 -2 -0.5 -3.5l-0.5 -1.5h-1q-9 -28 -26 -55v0q-2 -4 -3 -5v0q-2 -4 -3 -5l-1 -1q-1 -1 -2 -2.5l-1 -1.5v0
q-2 -4 -4 -5v0q-21 -29 -46 -47v0l-4 -4h-1l-4 -4v0q-4 -2 -5 -3v0q-33 -24 -71 -35v0q-38 -13 -83 -13v0zM704 1399q-90 -4 -179.5 14t-178.5 41q-103 26 -175 39v161q48 -9 97 -20.5t98 -23.5l56 -14t57 -13q-4 20 -4 45q0 94 66.5 161.5t162.5 67.5q94 0 161.5 -67.5
t67.5 -161.5v-1.5v-0.5v0v-1q-2 -31 -7 -53v0q-1 -1 -1 -4v-1l-1.5 -3t-0.5 -2v0q0 -2 -0.5 -3t-0.5 -2v0l-1.5 -3t-0.5 -2v0q-11 -29 -22 -46v0q-1 -2 -3 -4v-1q-2 -2 -3 -4v0q-1 -1 -2 -2.5l-1 -1.5v0q-1 -1 -2 -2.5l-1 -1.5v0q-21 -26 -39 -40v0q-2 -1 -4 -3v-1l-4 -2v-1
q-2 0 -4 -2h-1q-27 -20 -59 -30v0q-32 -11 -71 -11v0z" />
    <glyph glyph-name="uniEE21" unicode="&#xee21;" horiz-adv-x="1677" 
d="M1024 1598q237 0 405.5 -168.5t168.5 -405.5q0 -102 -36 -199q6 -41 6 -82q0 -237 -167.5 -404.5t-404.5 -167.5q-90 0 -172 26q215 67 328 267q-64 -14 -128 -14q-238 0 -406 168t-168 406q0 101 36 199q-6 40 -6 82q0 237 167.5 404.5t404.5 167.5q89 0 172 -26
q-216 -68 -328 -267q63 14 128 14zM1024 1278q-105 0 -179.5 -74.5t-74.5 -179.5t74.5 -179.5t179.5 -74.5t179.5 74.5t74.5 179.5t-74.5 179.5t-179.5 74.5z" />
    <glyph glyph-name="uniEE22" unicode="&#xee22;" 
d="M450 1039v0q0 3 0.5 7t0.5 7v0q0 10 1 15v0q0 3 0.5 7t0.5 7v1q0 3 0.5 6.5t1.5 6.5v2q0 4 2 12v2q-3 -12 2 13v1q0 3 1 6l2 6v1v2q2 8 2 11q1 1 1 3q0 3 1 5.5t2 5.5q0 2 1 3q0 2 0.5 4.5t1.5 5.5q1 1 1 4q0 2 1 4t2 5q0 1 0.5 2l1.5 3q0 2 1 4t2 5l0.5 1.5t0.5 2.5
q0 2 1 4t2 5l0.5 1.5t1.5 2.5v0q-6 40 -6 82q0 237 167.5 404.5t404.5 167.5q89 0 172 -26q-216 -68 -328 -267v0q3 0 11 2q2 0 3 1q3 0 11 2h1h2q3 0 6 0.5t6 1.5h0.5t1.5 1q3 0 6 0.5t6 0.5h2q3 0 6.5 0.5t6.5 1.5h1q3 0 6.5 0.5t7.5 0.5v0q5 1 14 1h1q3 0 6.5 0.5
t7.5 0.5v0h7h8v0h7h8v0q3 0 7 -0.5t7 -0.5v0q10 0 15 -1v0q3 0 7 -0.5t7 -0.5h1q3 -1 6.5 -1.5t6.5 -0.5h2q3 0 13 -2h1q-12 3 13 -2h1l6 -2t6 -1h1h2q8 -2 11 -2l3 -1q3 -1 5.5 -2t5.5 -1q2 0 3 -1q2 -1 4.5 -1.5t5.5 -0.5q1 -1 4 -1l4 -2t5 -1q1 -1 2 -1.5t3 -0.5l4 -2
t5 -1q1 0 2 -0.5t2 -0.5l4 -2t5 -1q0 -1 1.5 -1.5t2.5 -0.5v0q40 6 82 6q237 0 404.5 -167.5t167.5 -404.5q0 -90 -26 -172q-68 215 -267 328q0 -3 2 -11q0 -2 1 -3q0 -5 2 -11v-3q0 -3 0.5 -6t1.5 -6l1 -2q0 -3 0.5 -6t0.5 -6v-2q0 -3 0.5 -6.5t1.5 -6.5v-1q0 -4 0.5 -7.5
t0.5 -6.5v0q1 -5 1 -14v-1q0 -4 0.5 -7.5t0.5 -6.5v0v-8v-7v0v-7.5v-6.5v-1q0 -4 -0.5 -7.5t-0.5 -6.5v-1q0 -9 -1 -14v0q0 -4 -0.5 -7.5t-0.5 -6.5v-1q-1 -3 -1.5 -6.5t-0.5 -6.5v-2q0 -4 -2 -12v-2q-1 -3 -1.5 -6t-0.5 -6v-3q-1 -3 -3 -11v-2v-1q-2 -8 -2 -11q-1 -1 -1 -3
q-1 -3 -2 -5.5t-1 -5.5q0 -2 -1 -3q-1 -3 -1.5 -5.5t-0.5 -4.5q-1 -1 -1 -4q-1 -3 -2 -5t-1 -4l-1.5 -3t-0.5 -2q-1 -3 -2 -5t-1 -4q0 -1 -0.5 -2.5l-0.5 -1.5q-1 -3 -2 -5t-1 -4q-1 -1 -1.5 -2.5l-0.5 -1.5q6 -41 6 -82q0 -237 -167.5 -404.5t-404.5 -167.5q-90 0 -172 26
q215 67 328 267q-3 0 -11 -2q-2 0 -3 -1q-3 0 -11 -2h-2h-1q-3 -1 -6 -1.5t-6 -0.5l-2 -1q-3 0 -6 -0.5t-6 -0.5h-2q-3 -1 -6.5 -1.5t-6.5 -0.5h-1q-4 0 -7.5 -0.5t-6.5 -0.5v0q-5 -1 -14 -1h-1q-4 0 -7.5 -0.5t-6.5 -0.5v0h-8h-7v0h-7.5h-6.5h-1q-4 0 -7.5 0.5t-6.5 0.5h-1
q-9 0 -14 1v0q-4 0 -7.5 0.5t-6.5 0.5h-1q-3 0 -6.5 0.5t-6.5 1.5h-2q-4 0 -12 2h-2q-3 0 -6 0.5t-6 1.5h-3q-6 2 -11 2q-1 1 -3 1q-8 2 -11 2q-1 1 -3 1q-3 0 -5.5 1t-5.5 2q-2 0 -3 1q-3 0 -5.5 0.5t-4.5 1.5q-1 1 -4 1t-5 1l-4 2q-2 0 -3 0.5t-2 1.5q-3 0 -5 1l-4 2
q-1 0 -2.5 0.5t-2.5 0.5q-2 1 -8 3q-1 0 -2.5 0.5t-1.5 1.5q-41 -6 -82 -6q-237 0 -404.5 167.5t-167.5 404.5q0 89 26 172q67 -216 267 -328v0q0 3 -2 11q0 2 -1 3q0 3 -2 11v1v2q-5 20 -2 11q0 2 -1 3q0 3 -0.5 6t-0.5 6v2q-1 3 -1.5 6.5t-0.5 6.5v1q0 3 -0.5 6.5
t-0.5 7.5v0q-1 5 -1 14v1q0 3 -0.5 6.5t-0.5 7.5v0v7v8v0v7v8zM1024 1278h-3.5h-3.5v0h-3.5h-2.5v0q-4 0 -6 -1v0h-4.5h-2.5v0q-2 0 -3.5 -0.5t-2.5 -0.5v0q-2 0 -3.5 -0.5t-3.5 -0.5v0q-2 0 -3.5 -0.5t-2.5 -0.5v0q-2 0 -3.5 -0.5t-2.5 -0.5v0q-2 0 -3.5 -0.5t-2.5 -0.5v0
q-2 -1 -3.5 -1.5t-2.5 -0.5v0q-3 0 -4.5 -0.5l-1.5 -0.5v0q-4 -2 -7 -2v0q-2 -2 -6 -2v0q-2 -2 -5 -2v0q-4 -2 -6 -2v0q-2 -1 -3.5 -2t-2.5 -1v0q-4 -2 -5 -2v0q-2 -1 -3.5 -2t-2.5 -1v0q-2 -1 -3.5 -2t-2.5 -1v0q-2 -1 -3 -2t-2 -1v0q-4 -2 -5 -3v0q-2 -1 -3.5 -2t-2.5 -1
v0q-2 -1 -3 -2t-2 -1v0q-2 -1 -3 -2t-2 -1v0q-2 -1 -3 -2.5t-2 -1.5v0q-2 -1 -3 -2t-2 -1v0q-3 -3 -5 -4v0q-2 -1 -3 -2.5t-2 -1.5v0l-4 -4v0q-2 -1 -3 -2.5t-2 -1.5v0l-2.5 -2.5l-1.5 -1.5v0q-3 -3 -5 -4v0q-1 -2 -4 -5v0l-2.5 -2.5l-1.5 -1.5v0q-1 -2 -2.5 -3t-1.5 -2v0
l-4 -4v0q-1 -2 -2.5 -3t-1.5 -2v0q-1 -2 -4 -5v0q-1 -2 -2 -3t-1 -2v0q-1 -2 -2.5 -3t-1.5 -2v0q-1 -2 -2 -3t-1 -2v0q-1 -2 -2 -3t-1 -2v0q-1 -2 -2 -3.5t-1 -2.5v0q-1 -1 -3 -5v0q-1 -2 -2 -3t-1 -2v0q-1 -2 -2 -3.5t-1 -2.5v0q-1 -2 -2 -3.5t-1 -2.5v0q0 -1 -2 -5v0
q-1 -2 -2 -3.5t-1 -2.5v0q0 -2 -2 -6v0q0 -3 -2 -5v0q0 -4 -2 -6v0q0 -3 -2 -7v0q0 -2 -0.5 -3t-0.5 -3v0q-1 -2 -1.5 -3.5t-0.5 -2.5v0q0 -2 -0.5 -3.5t-0.5 -2.5v0q0 -2 -0.5 -3.5t-0.5 -2.5v0q0 -2 -0.5 -3.5t-0.5 -2.5v0q0 -3 -0.5 -4.5t-0.5 -2.5v0q0 -2 -0.5 -3.5
t-0.5 -2.5v0v-3.5v-3.5v0q-1 -2 -1 -6v0v-3.5v-2.5v0v-4.5v-2.5q0 -105 74.5 -179.5t179.5 -74.5h2.5h4.5v0h2.5h3.5v0q4 0 6 1v0h3.5h3.5v0q1 0 2.5 0.5t3.5 0.5v0q1 0 2.5 0.5t4.5 0.5v0q1 0 2.5 0.5t3.5 0.5v0q1 0 2.5 0.5t3.5 0.5v0q1 0 2.5 0.5t3.5 0.5v0q1 0 2.5 0.5
t3.5 1.5v0q2 0 3.5 0.5t2.5 0.5v0q4 2 7 2v0q2 2 6 2v0q2 2 5 2v0q4 2 6 2v0q1 0 2.5 1t3.5 2v0q4 2 5 2v0q1 0 2.5 1t3.5 2v0q1 0 2.5 1t3.5 2v0q1 0 2 1t3 2v0q4 2 5 3v0q1 0 2.5 1t3.5 2v0q1 0 2 1t3 2v0q1 0 2 1t3 2v0q1 0 2 1.5t3 2.5v0q1 0 2 1t3 2v0q3 3 5 4v0
q1 0 2 1.5t3 2.5v0l4 4v0q1 0 2 1.5t3 2.5v0l1.5 1.5l2.5 2.5v0q3 3 5 4v0q1 2 4 5v0l1.5 1.5l2.5 2.5v0q0 1 1.5 2t2.5 3v0l4 4v0q0 1 1.5 2t2.5 3v0q1 2 4 5v0q0 1 1 2t2 3v0q0 1 1.5 2t2.5 3v0q0 1 1 2t2 3v0q0 1 1 2t2 3v0q0 1 1 2.5t2 3.5v0q1 1 3 5v0q0 1 1 2t2 3v0
q0 1 1 2.5t2 3.5v0q0 1 1 2.5t2 3.5v0q0 1 2 5v0q0 1 1 2.5t2 3.5v0q0 2 2 6v0q0 3 2 5v0q0 4 2 6v0q0 3 2 7v0l0.5 1.5t0.5 4.5v0q0 1 0.5 2.5t1.5 3.5v0q0 1 0.5 2.5t0.5 3.5v0q0 1 0.5 2.5t0.5 3.5v0q0 1 0.5 2.5t0.5 3.5v0q0 2 0.5 3.5t0.5 3.5v0q0 1 0.5 2.5t0.5 3.5v0
v2.5v4.5v0q1 2 1 6v0v2.5v3.5v0v3.5v3.5q0 105 -74.5 179.5t-179.5 74.5z" />
  </font>
</defs>
</svg>
